<?xml version="1.0" standalone="no"?>
<!DOCTYPE svg PUBLIC "-//W3C//DTD SVG 1.1//EN" "http://www.w3.org/Graphics/SVG/1.1/DTD/svg11.dtd" >
<svg xmlns="http://www.w3.org/2000/svg" xmlns:xlink="http://www.w3.org/1999/xlink" version="1.1">
<metadata>
Created by FontForge 20161003 at Wed Aug  8 20:08:02 2018
 By www-data
Typeface (c) StudioTypo. 2015. All Rights Reserved
</metadata>
<defs>
<font id="EarlyTimes" horiz-adv-x="1036" >
  <font-face 
    font-family="Early Times"
    font-weight="400"
    font-stretch="normal"
    units-per-em="2048"
    panose-1="2 0 5 0 0 0 0 0 0 0"
    ascent="1638"
    descent="-410"
    x-height="1112"
    cap-height="1476"
    bbox="-67 -482 2052 1833"
    underline-thickness="150"
    underline-position="-292"
    unicode-range="U+001D-F002"
  />
<missing-glyph horiz-adv-x="280" 
 />
    <glyph glyph-name=".notdef" horiz-adv-x="280" 
 />
    <glyph glyph-name=".null" horiz-adv-x="280" 
 />
    <glyph glyph-name=".null" horiz-adv-x="280" 
 />
    <glyph glyph-name="nonmarkingreturn" horiz-adv-x="280" 
 />
    <glyph glyph-name="space" unicode=" " horiz-adv-x="559" 
 />
    <glyph glyph-name="space" unicode="&#xa0;" horiz-adv-x="559" 
 />
    <glyph glyph-name="exclam" unicode="!" horiz-adv-x="472" 
d="M312 1019l-30 -656h-92l-30 656v456h152v-456zM312 0h-152v152h152v-152z" />
    <glyph glyph-name="quotedbl" unicode="&#x22;" horiz-adv-x="709" 
d="M140 1201v275h152v-275l-30 -155h-92zM417 1201v275h152v-275l-30 -155h-92z" />
    <glyph glyph-name="numbersign" unicode="#" horiz-adv-x="1477" 
d="M842 595l63 298h-273l-63 -298h273zM760 1476l-95 -441h273l95 441h156l-96 -441h244v-152h-276l-64 -298h340v-152h-372l-92 -433h-156l93 433h-273l-93 -433h-155l92 433h-241v152h273l64 298h-337v152h369l95 441h156z" />
    <glyph glyph-name="dollar" unicode="$" horiz-adv-x="1220" 
d="M944 786q173 -94 173 -359v-9q-2 -176 -120 -291q-116 -116 -313 -136v-191h-152v192q-168 19 -287 104q-129 92 -145 230l152 17q8 -78 92 -133q76 -50 188 -65v553q-188 10 -280 76q-126 90 -126 305v20q4 153 101 255q98 101 266 129q19 3 39 5v190h152v-193
q133 -18 232 -78q109 -67 146 -168l-143 -52q-41 111 -235 144v-487q170 -8 260 -58zM278 1095v-16q0 -128 59 -177q52 -43 195 -52v485q-8 -1 -15 -2q-234 -38 -239 -238zM684 144q278 40 281 276v8q0 151 -70 208q-57 47 -211 56v-548z" />
    <glyph glyph-name="percent" unicode="%" horiz-adv-x="1324" 
d="M581 1003q0 -85 -65 -145q-64 -60 -156 -60q-91 0 -155 60q-65 60 -65 145v260q0 85 65 146q64 60 155 60q92 0 156 -60q65 -61 65 -146v-260zM292 1003q0 -21 20 -37q21 -16 48 -16q28 0 48 16q21 16 21 37v260q0 22 -21 38q-20 16 -48 16q-27 0 -48 -16
q-20 -16 -20 -38v-260zM964 667q91 0 155 -60q65 -61 65 -146v-260q0 -85 -65 -145q-64 -60 -155 -60t-156 60t-65 145v260q0 85 65 146q65 60 156 60zM1032 461q0 22 -20 38q-21 16 -48 16q-28 0 -48 -16q-21 -16 -21 -38v-260q0 -21 21 -37q20 -16 48 -16q27 0 48 16
q20 16 20 37v260zM358 0l441 1476h158l-440 -1476h-159z" />
    <glyph glyph-name="ampersand" unicode="&#x26;" horiz-adv-x="1174" 
d="M574 184q152 0 233 70q-34 36 -43 45q-286 293 -382 398q-90 -47 -90 -128v-215q0 -85 98 -132q80 -38 184 -38zM1053 0l-139 145q-122 -113 -340 -113q-192 0 -313 90t-121 232v215q0 154 142 245q-142 176 -142 296v73q0 158 148 249q119 73 276 73t276 -73
q148 -91 148 -249v-76h-152v76q0 85 -99 132q-80 38 -173 38q-94 0 -174 -38q-98 -47 -98 -132v-73q0 -72 132 -229l44 -51q97 -110 388 -408v223h152v-291q0 -39 -11 -77l266 -277h-210z" />
    <glyph glyph-name="quotesingle" unicode="'" horiz-adv-x="432" 
d="M140 1201v275h152v-275l-30 -155h-92z" />
    <glyph glyph-name="parenleft" unicode="(" horiz-adv-x="520" 
d="M506 1476q-254 -412 -254 -885t258 -890h-130q-280 392 -280 890q0 495 276 885h130z" />
    <glyph glyph-name="parenright" unicode=")" horiz-adv-x="520" 
d="M144 1476q276 -390 276 -885q0 -498 -280 -890h-130q258 417 258 890t-254 885h130z" />
    <glyph glyph-name="asterisk" unicode="*" horiz-adv-x="1042" 
d="M860 1306l42 -146l-250 -73l154 -191l-119 -95l-166 205l-165 -205l-119 95l154 191l-251 73l43 146l262 -77v246h152v-246z" />
    <glyph glyph-name="plus" unicode="+" horiz-adv-x="1391" 
d="M772 812h399v-152h-399v-430h-152v430h-400v152h400v430h152v-430z" />
    <glyph glyph-name="comma" unicode="," horiz-adv-x="442" 
d="M189 0h-49v162h162v-162q-13 -111 -96 -239h-75q52 132 58 239z" />
    <glyph glyph-name="hyphen" unicode="-" horiz-adv-x="1391" 
d="M1171 812v-152h-951v152h951z" />
    <glyph glyph-name="hyphen" unicode="&#xad;" horiz-adv-x="1391" 
d="M1171 812v-152h-951v152h951z" />
    <glyph glyph-name="period" unicode="." horiz-adv-x="442" 
d="M140 162h162v-162h-162v162z" />
    <glyph glyph-name="slash" unicode="/" horiz-adv-x="724" 
d="M10 0l571 1476h133l-571 -1476h-133z" />
    <glyph glyph-name="zero" unicode="0" horiz-adv-x="1148" 
d="M574 1494q179 0 307 -127q127 -128 127 -307v-646q0 -180 -127 -307q-128 -127 -307 -127q-180 0 -307 127t-127 307v646q0 179 127 307q127 127 307 127zM856 1060q0 117 -83 199q-82 83 -199 83t-199 -83q-83 -82 -83 -199v-646q0 -117 83 -199q82 -83 199 -83t199 83
q83 82 83 199v646z" />
    <glyph glyph-name="one" unicode="1" horiz-adv-x="714" 
d="M464 1476v-1476h-152v1253l-196 -135l-86 95l337 263h97z" />
    <glyph glyph-name="two" unicode="2" horiz-adv-x="1108" 
d="M574 1494q175 0 298 -94q136 -104 136 -276v-37q0 -142 -115 -255q-68 -68 -248 -175q-179 -107 -245 -171q-108 -106 -108 -240v-94h716v-152h-868v246q0 189 142 335q83 86 285 206q156 93 212 146q77 73 77 154v37q0 100 -81 159q-80 59 -201 59q-113 0 -192 -53
q-90 -60 -90 -165v-76h-152v76q0 172 136 276q123 94 298 94z" />
    <glyph glyph-name="three" unicode="3" horiz-adv-x="1125" 
d="M807 764q178 -122 178 -353q0 -180 -115 -299q-126 -132 -336 -132q-167 0 -286 73q-148 90 -148 250h152q0 -85 99 -133q80 -38 183 -38q145 0 227 84q72 75 72 195t-72 194q-82 85 -227 85h-178v152h178q144 0 225 77q69 67 69 173q0 108 -71 175q-80 75 -223 75
q-103 0 -183 -39q-99 -47 -99 -132h-152q0 159 148 250q119 73 286 73q208 0 333 -123q113 -111 113 -279q0 -171 -116 -282q-26 -26 -57 -46z" />
    <glyph glyph-name="four" unicode="4" horiz-adv-x="1163" 
d="M766 435v719l-496 -719h496zM100 456l702 1018h116v-1039h205v-152h-205v-283h-152v283h-666v173z" />
    <glyph glyph-name="five" unicode="5" horiz-adv-x="1148" 
d="M257 285q29 -61 117 -103q91 -44 205 -44h15q144 3 230 112q71 101 71 229v2q0 271 -260 312q-33 5 -66 5q-79 0 -155 -28q-100 -37 -116 -87l-148 20v774h811v-152h-659v-439q121 65 260 65q47 0 97 -8q183 -29 286 -162q102 -133 102 -300v-3q0 -188 -115 -331
q-126 -157 -335 -161h-14q-159 0 -286 64t-177 170z" />
    <glyph glyph-name="six" unicode="6" horiz-adv-x="1209" 
d="M607 1004q214 0 343 -159q118 -144 118 -347v-4q0 -200 -115 -343q-128 -160 -342 -161h-3q-219 0 -349 163q-79 99 -104 235l-7 132q-2 104 -2 196q0 185 7 325q15 211 134 327q118 116 320 116q133 0 239 -51q107 -51 158 -138l38 -66l-132 -76l-38 66q-29 50 -102 82
q-73 31 -163 31q-281 0 -302 -301q-7 -101 -9 -150q125 123 311 123zM610 142q148 1 232 114q74 99 74 237v4q0 142 -75 241q-86 114 -234 114q-145 0 -230 -109q-75 -95 -79 -233q0 -7 1 -43q8 -131 78 -219q85 -106 231 -106h2z" />
    <glyph glyph-name="seven" unicode="7" horiz-adv-x="1138" 
d="M313 0q142 770 567 1325h-840v152h1058v-122l-2 -2q-469 -573 -623 -1353h-160z" />
    <glyph glyph-name="eight" unicode="8" horiz-adv-x="1111" 
d="M804 796q100 -59 155 -162q52 -98 52 -220q0 -184 -116 -303q-128 -131 -343 -131q-210 0 -337 135q-115 122 -115 305q0 120 51 216q54 101 151 159q-130 112 -130 306q0 164 96 273q107 120 284 120q178 0 284 -120q97 -109 97 -273q0 -193 -129 -305zM324 1101
q0 -105 55 -169q62 -72 173 -72t174 72q55 64 55 169t-55 168q-63 73 -174 73t-173 -73q-55 -63 -55 -168zM786 217q73 75 73 197q0 123 -74 203q-85 91 -233 91q-146 0 -228 -87q-72 -77 -72 -201t72 -201q82 -87 228 -87q151 0 234 85z" />
    <glyph glyph-name="nine" unicode="9" horiz-adv-x="1209" 
d="M1063 958q2 -106 2 -197q0 -198 -9 -328q-15 -211 -134 -327t-320 -116q-133 0 -240 51q-106 51 -157 138l-38 66l132 76l38 -66q29 -51 102 -82t163 -31q281 0 302 301q6 84 8 123q-125 -125 -310 -125q-214 0 -344 164q-117 147 -117 357v4q0 206 115 353
q128 164 342 165h3q220 0 350 -168q87 -114 107 -272l4 1v-52q1 -16 1 -29v-6zM602 593q147 0 232 116q75 101 77 247v10l-1 22q-6 140 -79 235q-85 109 -230 109h-2q-148 -1 -233 -119q-73 -103 -73 -247v-4q0 -148 75 -251q86 -118 234 -118z" />
    <glyph glyph-name="colon" unicode=":" horiz-adv-x="442" 
d="M140 162h162v-162h-162v162zM140 1112h162v-162h-162v162z" />
    <glyph glyph-name="semicolon" unicode=";" horiz-adv-x="442" 
d="M189 0h-49v162h162v-162q-13 -111 -96 -239h-75q52 132 58 239zM140 1112h162v-162h-162v162z" />
    <glyph glyph-name="semicolon" unicode="&#x37e;" horiz-adv-x="442" 
d="M189 0h-49v162h162v-162q-13 -111 -96 -239h-75q52 132 58 239zM140 1112h162v-162h-162v162z" />
    <glyph glyph-name="less" unicode="&#x3c;" horiz-adv-x="889" 
d="M789 1043l-569 -307l569 -307v-166l-689 372v202l689 372v-166z" />
    <glyph glyph-name="equal" unicode="=" horiz-adv-x="1391" 
d="M1171 1012v-152h-951v152h951zM1171 612v-152h-951v152h951z" />
    <glyph glyph-name="greater" unicode="&#x3e;" horiz-adv-x="889" 
d="M100 1209l689 -372v-202l-689 -372v166l569 307l-569 307v166z" />
    <glyph glyph-name="question" unicode="?" horiz-adv-x="1109" 
d="M860 1403q148 -91 148 -249v-168q0 -134 -88 -208q-51 -43 -160 -82q-96 -36 -129 -67q-45 -42 -45 -136v-141h-152v141q0 164 101 253q57 51 177 94q83 31 111 55q33 29 33 91v168q0 85 -98 132q-81 38 -184 38q-104 0 -184 -38q-98 -47 -98 -132v-76h-152v76
q0 158 148 249q119 73 286 73t286 -73zM429 161h162v-162h-162v162z" />
    <glyph glyph-name="at" unicode="@" horiz-adv-x="1631" 
d="M816 1473q279 0 477 -216t198 -521q0 -102 -31 -221q-8 -27 -17 -51q-76 -193 -267 -201q-18 0 -36 3q-86 13 -136 85q-61 -43 -133 -43h-165q-99 0 -170 75q-70 76 -70 182q0 107 70 182q71 76 170 76h165q71 0 85 9q3 5 3 17h-1l1 75v4q0 52 -30 83q-22 22 -58 22h-165
q-36 0 -62 -31q-26 -30 -26 -74h-152q0 106 70 182q71 75 170 75h165q100 0 167 -68q43 -44 61 -107q13 -67 13 -133q0 -13 -1 -26v-338q0 -89 53 -97q7 -1 14 -1q29 0 59 19q41 24 58 67l4 11l16 49q24 86 24 175q0 242 -153 414q-154 171 -370 171q-217 0 -370 -171
q-154 -172 -154 -414t154 -413q153 -171 370 -171q73 0 145 22l72 23l46 -145l-72 -23q-94 -29 -191 -29q-280 0 -478 216t-198 520q0 305 198 521t478 216zM871 460q36 0 62 31t26 74v111q-34 -5 -88 -5h-165q-36 0 -62 -32q-26 -31 -26 -74t26 -74t62 -31h165z" />
    <glyph glyph-name="A" unicode="A" horiz-adv-x="1054" 
d="M295 399l-126 -399h-159l465 1476h104l465 -1476h-159l-126 399h-464zM713 547q-139 442 -186 639q-46 -197 -186 -639h372z" />
    <glyph glyph-name="B" unicode="B" horiz-adv-x="1141" 
d="M900 777q161 -120 161 -355q0 -166 -88 -283q-104 -139 -380 -139h-453v1476h424q270 0 372 -123q93 -112 93 -270q0 -155 -89 -265q-18 -22 -40 -41zM292 833h372q100 0 158 71q55 68 55 179q0 98 -43 164q-58 87 -270 87h-272v-501zM851 220q58 87 58 202
q0 108 -44 182q-58 97 -172 97h-401v-559h301q200 0 258 78z" />
    <glyph glyph-name="C" unicode="C" horiz-adv-x="1265" 
d="M960 1404q165 -106 165 -289v-76h-152v86q0 100 -95 161q-99 63 -245 63q-137 0 -232 -54q-109 -62 -109 -170v-779q0 -108 109 -170q95 -54 232 -54q136 0 231 54q109 62 109 170v86h152v-76q0 -184 -165 -289q-136 -87 -327 -87q-192 0 -328 87q-165 105 -165 289v759
q0 183 165 289q136 87 328 87q191 0 327 -87z" />
    <glyph glyph-name="D" unicode="D" horiz-adv-x="1246" 
d="M547 1476q394 0 503 -231q96 -204 96 -507q0 -302 -96 -506q-109 -232 -503 -232h-407v1476h407zM920 304q74 171 74 434q0 240 -65 411q-71 185 -382 185h-255v-1192h255q303 0 373 162z" />
    <glyph glyph-name="E" unicode="E" horiz-adv-x="993" 
d="M140 1476h813v-142h-661v-520h558v-142h-558v-530h661v-142h-813v1476z" />
    <glyph glyph-name="F" unicode="F" horiz-adv-x="993" 
d="M140 1476h813v-142h-661v-520h558v-142h-558v-672h-152v1476z" />
    <glyph glyph-name="G" unicode="G" horiz-adv-x="1265" 
d="M960 1404q165 -106 165 -289v-76h-152v86q0 100 -95 161q-99 63 -245 63q-137 0 -232 -54q-109 -62 -109 -170v-779q0 -108 109 -170q95 -54 232 -54q136 0 231 54q109 62 109 170v318h-416v142h568v-450q0 -184 -165 -289q-136 -87 -327 -87q-192 0 -328 87
q-165 105 -165 289v759q0 183 165 289q136 87 328 87q191 0 327 -87z" />
    <glyph glyph-name="H" unicode="H" horiz-adv-x="1208" 
d="M916 1476h152v-1476h-152v672h-624v-672h-152v1476h152v-662h624v662z" />
    <glyph glyph-name="I" unicode="I" horiz-adv-x="472" 
d="M160 1476h152v-1476h-152v1476z" />
    <glyph glyph-name="J" unicode="J" horiz-adv-x="915" 
d="M143 72q-118 101 -118 269v76h152v-86q0 -102 70 -159q61 -50 153 -50q91 0 153 50q70 57 70 159v1142h152v-1132q0 -168 -118 -269q-106 -92 -257 -92t-257 92z" />
    <glyph glyph-name="K" unicode="K" horiz-adv-x="1082" 
d="M1059 1476l-492 -613l505 -863h-176l-431 737l-173 -214v-522h-152v1476h152v-712l571 711h196z" />
    <glyph glyph-name="L" unicode="L" horiz-adv-x="1012" 
d="M292 142h680v-142h-832v1476h152v-1334z" />
    <glyph glyph-name="M" unicode="M" horiz-adv-x="1464" 
d="M1172 0v1016l-388 -1016h-104l-388 1016v-1016h-152v1476h128l464 -1210l464 1210h128v-1476h-152z" />
    <glyph glyph-name="N" unicode="N" horiz-adv-x="1177" 
d="M262 1476l623 -1128v1130h152v-1478h-119l-626 1132v-1130h-152v1474h122z" />
    <glyph glyph-name="O" unicode="O" horiz-adv-x="1265" 
d="M960 1404q165 -106 165 -289v-759q0 -184 -165 -289q-136 -87 -327 -87q-192 0 -328 87q-165 105 -165 289v759q0 183 165 289q136 87 328 87q191 0 327 -87zM973 1125q0 108 -109 170q-95 54 -231 54q-137 0 -232 -54q-109 -62 -109 -170v-779q0 -108 109 -170
q95 -54 232 -54q136 0 231 54q109 62 109 170v779z" />
    <glyph glyph-name="P" unicode="P" horiz-adv-x="1115" 
d="M676 1476q172 0 276 -140q95 -127 95 -306q0 -174 -88 -298q-105 -148 -283 -148h-384v-584h-152v1476h536zM835 810q60 84 60 220q0 128 -54 210q-60 94 -165 94h-384v-608h384q100 0 159 84z" />
    <glyph glyph-name="Q" unicode="Q" horiz-adv-x="1248" 
d="M545 234h-7q-52 0 -135 -59q94 -53 230 -53q32 0 52 3q-86 105 -140 109zM538 348q8 0 16 -1q100 -8 224 -156l34 -39q28 10 52 24q109 62 109 170v779q0 108 -109 170q-95 54 -231 54q-137 0 -232 -54q-109 -62 -109 -170v-779q0 -53 27 -95q124 97 219 97zM945 58
q1 -1 2 -1q11 -1 23 -1q106 0 259 87l47 -113q-147 -84 -271 -84q-52 0 -100 15q-67 21 -94 39q-68 -20 -178 -20q-192 0 -328 87q-165 105 -165 289v759q0 183 165 289q136 87 328 87q191 0 327 -87q165 -106 165 -289v-759q0 -184 -165 -289q-7 -5 -15 -9z" />
    <glyph glyph-name="R" unicode="R" horiz-adv-x="1159" 
d="M676 756q100 0 158 80q59 80 59 209q0 122 -53 201q-60 89 -164 89h-384v-579h384zM988 0q-203 383 -252 455q-110 159 -199 159h-245v-613h-152v1476h536q172 0 275 -135q94 -123 94 -297q0 -169 -88 -289q-66 -90 -167 -124q87 -97 369 -632h-171z" />
    <glyph glyph-name="S" unicode="S" horiz-adv-x="1180" 
d="M332 910q-77 58 -77 184q4 124 103 189q85 56 215 56q114 1 208 -42q96 -44 120 -110l143 52q-43 120 -184 189q-129 64 -287 64q-194 0 -323 -97q-143 -108 -148 -297q0 -386 471 -406q198 -8 267 -45q109 -58 107 -232q-2 -141 -112 -217q-96 -65 -244 -65
q-134 0 -238 54q-113 58 -124 151l-152 -17q18 -156 177 -252q146 -89 337 -89q213 0 353 109q154 119 156 325q3 250 -145 346q-112 73 -381 85q-167 8 -242 65z" />
    <glyph glyph-name="T" unicode="T" horiz-adv-x="969" 
d="M929 1476v-142h-368v-1334h-152v1334h-369v142h889z" />
    <glyph glyph-name="U" unicode="U" horiz-adv-x="1204" 
d="M912 1476h152v-1122q0 -176 -145 -281q-131 -95 -317 -95q-180 0 -309 88q-153 106 -153 288v1122h152v-1132q0 -108 99 -170q87 -54 211 -54t211 54q99 62 99 170v1132z" />
    <glyph glyph-name="V" unicode="V" horiz-adv-x="987" 
d="M441 0l-431 1476h158l325 -1133l325 1133h159l-431 -1476h-105z" />
    <glyph glyph-name="W" unicode="W" horiz-adv-x="1741" 
d="M1213 0l-343 1184l-342 -1184h-88l-430 1476h158l316 -1103l316 1103h140l317 -1103l316 1103h158l-430 -1476h-88z" />
    <glyph glyph-name="X" unicode="X" horiz-adv-x="1058" 
d="M870 0l-341 604l-342 -604h-175l429 735l-431 741h176l343 -610l343 610h176l-431 -741l429 -735h-176z" />
    <glyph glyph-name="Y" unicode="Y" horiz-adv-x="1038" 
d="M1028 1476l-434 -867v-609h-152v609l-432 867h170l338 -699l340 699h170z" />
    <glyph glyph-name="Z" unicode="Z" 
d="M60 110l708 1214h-686v152h893v-99l-714 -1225h715v-152h-916v110z" />
    <glyph glyph-name="bracketleft" unicode="[" horiz-adv-x="709" 
d="M140 1473h429v-152h-277v-1569h277v-152h-429v1873z" />
    <glyph glyph-name="backslash" unicode="\" horiz-adv-x="724" 
d="M581 0l-571 1476h133l571 -1476h-133z" />
    <glyph glyph-name="bracketright" unicode="]" horiz-adv-x="709" 
d="M569 -400h-429v152h277v1569h-277v152h429v-1873z" />
    <glyph glyph-name="asciicircum" unicode="^" horiz-adv-x="1151" 
d="M869 842l-293 448l-294 -448h-182l417 635h118l416 -635h-182z" />
    <glyph glyph-name="underscore" unicode="_" horiz-adv-x="1131" 
d="M1141 -1v-152h-1151v152h1151z" />
    <glyph glyph-name="grave" unicode="`" horiz-adv-x="682" 
d="M465 1181h-145l-201 270h181z" />
    <glyph glyph-name="a" unicode="a" 
d="M604 132q58 0 99 41t41 99v161q0 58 -41 99t-99 41h-173q-57 0 -98 -41t-41 -99v-161q0 -58 41 -99t98 -41h173zM161 840q6 108 84 186q86 86 206 86h153q121 0 206 -86q86 -85 86 -206v-820h-152v86q-45 -86 -140 -86h-173q-120 0 -206 86q-85 85 -85 206v121
q0 121 85 206q86 86 206 86h173q95 0 140 -86v231q0 58 -41 99t-99 41h-153q-57 0 -98 -41q-36 -36 -40 -109h-152z" />
    <glyph glyph-name="b" unicode="b" 
d="M604 1112q121 0 206 -86q86 -85 86 -206v-528q0 -121 -86 -206q-85 -86 -206 -86h-173q-94 0 -139 86v-86h-152v1476h152v-450q45 86 139 86h173zM744 840q0 58 -41 99t-99 41h-173q-57 0 -98 -41t-41 -99v-568q0 -58 41 -99t98 -41h173q58 0 99 41t41 99v568z" />
    <glyph glyph-name="c" unicode="c" 
d="M604 1112q121 0 206 -86q86 -85 86 -206v-76h-152v96q0 58 -41 99t-99 41h-173q-57 0 -98 -41t-41 -99v-568q0 -58 41 -99t98 -41h173q58 0 99 41t41 99v96h152v-76q0 -121 -86 -206q-85 -86 -206 -86h-173q-120 0 -206 86q-85 85 -85 206v528q0 121 85 206q86 86 206 86
h173z" />
    <glyph glyph-name="d" unicode="d" 
d="M604 1112q94 0 140 -86v450h152v-1476h-152v86q-46 -86 -140 -86h-173q-120 0 -206 86q-85 85 -85 206v528q0 121 85 206q86 86 206 86h173zM292 272q0 -58 41 -99t98 -41h173q58 0 99 41t41 99v568q0 58 -41 99t-99 41h-173q-57 0 -98 -41t-41 -99v-568z" />
    <glyph glyph-name="e" unicode="e" 
d="M604 1112q121 0 206 -86q86 -85 86 -206v-340h-604v-208q0 -58 41 -99t98 -41h173q58 0 99 41t41 119h152q0 -121 -86 -206q-85 -86 -206 -86h-173q-120 0 -206 86q-85 85 -85 206v528q0 121 85 206q86 86 206 86h173zM744 840q0 58 -41 99t-99 41h-173q-57 0 -98 -41
t-41 -99v-228h452v228z" />
    <glyph glyph-name="f" unicode="f" horiz-adv-x="683" 
d="M255 1185q0 46 18 107q18 63 96 123q78 61 177 61h129v-132h-129q-57 0 -98 -41t-41 -99v-102h225v-132h-225v-970h-152v970h-115v132h115v83z" />
    <glyph glyph-name="g" unicode="g" 
d="M744 1111h152v-1184q0 -121 -86 -206q-85 -85 -206 -85h-173q-120 0 -206 85q-85 85 -85 206h152q0 -78 41 -119q41 -40 98 -40h173q58 0 99 40q41 41 41 99v199q-45 -85 -140 -85h-173q-120 0 -206 85q-85 85 -85 206v507q0 121 85 206q86 86 206 86h173q95 0 140 -86
v86zM604 153q58 0 99 40q41 41 41 99v547q0 58 -41 99t-99 41h-173q-57 0 -98 -41t-41 -99v-547q0 -58 41 -99q41 -40 98 -40h173z" />
    <glyph glyph-name="h" unicode="h" 
d="M604 1112q121 0 206 -86q86 -85 86 -206v-820h-152v840q0 58 -41 99t-99 41h-173q-57 0 -98 -41t-41 -99v-840h-152v1476h152v-450q45 86 139 86h173z" />
    <glyph glyph-name="i" unicode="i" horiz-adv-x="472" 
d="M160 1112h152v-1112h-152v1112zM160 1475h152v-152h-152v152z" />
    <glyph glyph-name="j" unicode="j" horiz-adv-x="517" 
d="M225 1113h152v-1184q0 -121 -85 -206t-206 -85h-76v132h76q58 0 99 40q40 41 40 99v1204zM225 1475h152v-152h-152v152z" />
    <glyph glyph-name="k" unicode="k" horiz-adv-x="958" 
d="M919 1112l-377 -417l412 -695h-177l-347 580l-108 -117v-463h-152v1476h152v-801l398 437h199z" />
    <glyph glyph-name="l" unicode="l" horiz-adv-x="472" 
d="M160 1476h152v-1476h-152v1476z" />
    <glyph glyph-name="m" unicode="m" horiz-adv-x="1507" 
d="M1076 1112q120 0 206 -86q85 -85 85 -206v-820h-152v840q0 58 -41 99t-98 41h-107q-58 0 -98 -41q-41 -41 -41 -99v-840h-152v840q0 58 -41 99t-99 41h-107q-57 0 -98 -41t-41 -99v-840h-152v1112h152v-86q45 86 139 86h107q129 0 216 -115q87 115 215 115h107z" />
    <glyph glyph-name="n" unicode="n" 
d="M604 1112q121 0 206 -86q86 -85 86 -206v-820h-152v840q0 58 -41 99t-99 41h-173q-57 0 -98 -41t-41 -99v-840h-152v1112h152v-86q45 86 139 86h173z" />
    <glyph glyph-name="o" unicode="o" 
d="M604 1112q121 0 206 -86q86 -85 86 -206v-528q0 -121 -86 -206q-85 -86 -206 -86h-173q-120 0 -206 86q-85 85 -85 206v528q0 121 85 206q86 86 206 86h173zM744 840q0 58 -41 99t-99 41h-173q-57 0 -98 -41t-41 -99v-568q0 -58 41 -99t98 -41h173q58 0 99 41t41 99v568z
" />
    <glyph glyph-name="p" unicode="p" 
d="M604 1111q121 0 206 -86q86 -85 86 -206v-528q0 -121 -86 -206q-85 -86 -206 -86h-173q-74 0 -139 36v-399h-152v1475h152v-86q45 86 139 86h173zM744 839q0 58 -41 99t-99 41h-173q-57 0 -98 -41t-41 -99v-568q0 -58 41 -99t98 -41h173q58 0 99 41t41 99v568z" />
    <glyph glyph-name="q" unicode="q" 
d="M604 1111q95 0 140 -86v86h152v-1475h-152v449q-45 -86 -140 -86h-173q-120 0 -206 86q-85 85 -85 206v528q0 121 85 206q86 86 206 86h173zM292 271q0 -58 41 -99t98 -41h173q58 0 99 41t41 99v568q0 58 -41 99t-99 41h-173q-57 0 -98 -41t-41 -99v-568z" />
    <glyph glyph-name="r" unicode="r" horiz-adv-x="636" 
d="M292 995q77 117 254 117h76v-152h-76q-139 0 -196 -65q-58 -65 -58 -222v-673h-152v1112h152v-117z" />
    <glyph glyph-name="s" unicode="s" horiz-adv-x="987" 
d="M593 642q137 0 219 -102q75 -82 75 -214q0 -131 -75 -223q-82 -103 -219 -103h-202q-120 0 -206 86q-85 85 -85 206h152q0 -78 41 -119t98 -41h202q66 0 103 49q39 50 39 145q0 74 -29 122q-38 62 -113 62h-173q-136 0 -217 96q-74 77 -74 200q0 121 71 207q83 99 220 99
h144q102 0 183 -65q80 -65 102 -164l-149 -33q-10 68 -49 99q-38 31 -87 31h-144q-66 0 -103 -45q-36 -43 -36 -129q0 -66 28 -108q38 -56 111 -56h173z" />
    <glyph glyph-name="t" unicode="t" horiz-adv-x="681" 
d="M398 1102h203v-132h-203v-760q0 -54 17 -61t65 -7h91v-142h-157q-110 0 -149 82q-19 39 -19 128v760h-166v132h166v374h152v-374z" />
    <glyph glyph-name="u" unicode="u" 
d="M744 1112h152v-820q0 -121 -86 -206q-85 -86 -206 -86h-173q-120 0 -206 86q-85 85 -85 206v820h152v-820q0 -58 41 -99t98 -41h173q58 0 99 41t41 99v820z" />
    <glyph glyph-name="v" unicode="v" horiz-adv-x="812" 
d="M359 0l-349 1112h159l237 -753l237 753h159l-349 -1112h-94z" />
    <glyph glyph-name="w" unicode="w" horiz-adv-x="1358" 
d="M936 0l-257 742l-257 -742h-95l-317 1112h158l216 -758l262 758h66l262 -758l216 758h158l-317 -1112h-95z" />
    <glyph glyph-name="x" unicode="x" horiz-adv-x="901" 
d="M709 0l-258 411l-259 -411h-180l349 554l-351 558h180l261 -415l261 415h179l-350 -558l347 -554h-179z" />
    <glyph glyph-name="y" unicode="y" horiz-adv-x="848" 
d="M838 1112l-300 -957l-90 -286q-36 -115 -136 -173q-71 -32 -142 -32q-45 0 -88 14l-72 23l46 145l72 -23q22 -7 43 -7q32 0 63 16q52 27 69 82l60 189l-317 1009h159l237 -754l237 754h159z" />
    <glyph glyph-name="z" unicode="z" horiz-adv-x="875" 
d="M64 121l528 839h-532v152h755v-83l-552 -877h542v-152h-741v121z" />
    <glyph glyph-name="braceleft" unicode="{" horiz-adv-x="659" 
d="M587 -397h-72q-106 0 -159 30q-79 44 -93 165l-1 4q-3 54 -1 168q4 224 -24 320q-38 132 -163 185v129q126 60 163 174q26 80 20 274q-4 172 11 256q19 100 96 140q55 28 151 28h72v-144h-72q-65 0 -86 -14q-14 -8 -19 -37q-13 -68 -9 -225q5 -179 -14 -269
q-33 -154 -144 -246q112 -92 146 -265q20 -101 16 -308q-2 -107 1 -155q6 -45 21 -55q18 -11 88 -11h72v-144z" />
    <glyph glyph-name="bar" unicode="|" horiz-adv-x="432" 
d="M140 1473h152v-1873h-152v1873z" />
    <glyph glyph-name="braceright" unicode="}" horiz-adv-x="659" 
d="M74 -253h72q70 0 88 11q15 10 21 55q3 48 1 155q-4 207 16 308q34 173 146 265q-111 92 -144 246q-19 90 -14 269q4 157 -9 225q-5 29 -19 37q-21 14 -86 14h-72v144h72q96 0 151 -28q77 -40 96 -140q15 -84 11 -256q-6 -194 20 -274q37 -114 163 -174v-129
q-125 -53 -163 -185q-28 -96 -24 -320q2 -114 -1 -168l-1 -4q-14 -121 -93 -165q-53 -30 -159 -30h-72v144z" />
    <glyph glyph-name="asciitilde" unicode="~" horiz-adv-x="1009" 
d="M60 1362q59 57 160 87q19 4 39 4q94 0 229 -86q122 -78 185 -80h2q100 0 273 172l1 -1v-184q-136 -137 -292 -137h-2q-100 7 -249 102q-99 63 -142 63q-5 0 -10 -1q-117 -12 -194 -121v182z" />
    <glyph glyph-name="exclamdown" unicode="&#xa1;" horiz-adv-x="472" 
d="M160 93l30 656h92l30 -656v-456h-152v456zM160 1112h152v-152h-152v152z" />
    <glyph glyph-name="cent" unicode="&#xa2;" horiz-adv-x="1126" 
d="M838 703q-23 100 -122 155l-150 -653h1q98 0 175 55q76 55 96 139l148 -34q-31 -136 -150 -224q-118 -88 -269 -88q-16 0 -35 2l-35 -155l-149 34l36 157q-110 48 -176 142q-68 97 -68 212v212q0 162 125 277q126 115 302 115q18 0 36 -2l35 155l148 -34l-36 -157
q192 -85 236 -274zM419 243l150 654h-2q-114 0 -194 -71q-81 -70 -81 -169v-212q0 -131 127 -202z" />
    <glyph glyph-name="sterling" unicode="&#xa3;" horiz-adv-x="1069" 
d="M180 194q80 91 118 177q42 94 45 175v10q0 43 -14 114h-229v153h194q-40 168 -40 283v21q6 142 107 242q102 101 249 101q139 0 237 -99q94 -96 106 -256l-151 -12q-8 105 -64 161q-52 54 -128 54q-84 0 -141 -57q-59 -58 -63 -140v-18q0 -102 40 -262l1 -2q0 -2 2 -8
q1 -5 2 -8h260v-153h-227q11 -68 11 -116v-14q-4 -110 -58 -231q-19 -44 -47 -88q89 -3 191 -30q137 -42 192 -42q60 0 168 53l68 -136q-141 -69 -236 -69q-74 0 -230 47q-96 25 -175 25q-51 0 -113 -16z" />
    <glyph glyph-name="currency" unicode="&#xa4;" horiz-adv-x="1222" 
d="M1022 1259l100 -109l-123 -127q94 -131 94 -294q0 -162 -94 -293l123 -127l-100 -109l-125 129q-128 -97 -286 -97t-286 97l-126 -129l-99 109l123 127q-94 131 -94 293q0 163 94 294l-123 127l99 109l126 -129q128 97 286 97t286 -97zM273 729q0 -143 99 -244t239 -101
t239 101t99 244t-99 245q-99 101 -239 101t-239 -101q-99 -102 -99 -245z" />
    <glyph glyph-name="yen" unicode="&#xa5;" horiz-adv-x="1262" 
d="M191 1476l440 -673l440 673h181l-481 -736h223v-152h-287v-98h287v-152h-287v-338h-152v338h-287v152h287v98h-287v152h223l-481 736h181z" />
    <glyph glyph-name="brokenbar" unicode="&#xa6;" horiz-adv-x="432" 
d="M140 1466.38h152v-805.376h-152v805.376zM140 430.379h152v-805.376h-152v805.376z" />
    <glyph glyph-name="section" unicode="&#xa7;" horiz-adv-x="1076" 
d="M544 967q181 -45 258 -105q134 -103 134 -315q0 -125 -64 -229q64 -94 64 -242q0 -174 -116 -298q-117 -123 -282 -123q-164 0 -281 123q-117 124 -117 298v76h152v-76q0 -111 72 -190t174 -79t174 79t72 190q0 133 -72 192q-51 42 -205 80q-158 39 -226 87
q-118 84 -118 249q0 138 102 235q-102 83 -102 237q0 144 108 241q107 97 267 97q232 0 346 -171l42 -63l-126 -84l-42 63q-69 103 -220 103q-97 0 -160 -53q-63 -52 -63 -133q0 -109 99 -150l62 -21q27 -8 68 -18zM315 684q0 -86 52 -124q42 -31 177 -65q143 -35 211 -74
q29 60 29 126q0 134 -72 192q-51 42 -205 80q-58 15 -89 24q-103 -52 -103 -159z" />
    <glyph glyph-name="dieresis" unicode="&#xa8;" horiz-adv-x="758" 
d="M100 1404h162v-162h-162v162zM496 1404h162v-162h-162v162z" />
    <glyph glyph-name="copyright" unicode="&#xa9;" horiz-adv-x="1489" 
d="M552 1127q-85 -64 -85 -171v-448q0 -107 85 -172q77 -58 185 -58q109 0 186 58q84 65 84 172v52h-104v-52q0 -61 -53 -95q-46 -31 -113 -31q-66 0 -113 31q-53 34 -53 95v448q0 60 53 95q47 30 113 30q67 0 113 -30q53 -35 53 -95v-53h104v53q0 107 -84 171
q-77 58 -186 58q-108 0 -185 -58zM272 1230q-152 -205 -152 -498q0 -294 152 -499q172 -233 465 -233q310 0 482 212q150 185 150 517q0 298 -167 487q-182 248 -465 248q-293 0 -465 -234zM737 104q-247 0 -388 200q-125 176 -125 428q0 259 131 436q142 192 382 192
q236 0 388 -215q140 -159 140 -416q0 -295 -127 -451q-141 -174 -401 -174z" />
    <glyph glyph-name="guillemotleft" unicode="&#xab;" horiz-adv-x="1212" 
d="M732 968l-419 -419l420 -421h-214l-419 421l419 419h213zM1149 968l-419 -419l420 -421h-214l-419 421l419 419h213z" />
    <glyph glyph-name="logicalnot" unicode="&#xac;" horiz-adv-x="1063" 
d="M1013 973h-963v-153h810v-390h153v543z" />
    <glyph glyph-name="registered" unicode="&#xae;" horiz-adv-x="1474" 
d="M1044 957q0 229 -271 229h-270v-909h105v403h114v-1l21 1l227 -421l92 49l-207 383q82 22 132 75q57 59 57 146v45zM760 785h-152v297h165q110 0 146 -41q20 -24 20 -84v-45q0 -104 -136 -125l-9 16zM271 1230q-151 -205 -151 -498q0 -294 151 -499q173 -233 466 -233
t466 233q151 205 151 499q0 293 -151 498q-173 234 -466 234t-466 -234zM737 104q-247 0 -388 200q-125 176 -125 428q0 259 131 436q142 192 382 192q247 0 389 -201q124 -176 124 -427q0 -259 -131 -437q-141 -191 -382 -191z" />
    <glyph glyph-name="macron" unicode="&#xaf;" horiz-adv-x="851" 
d="M751 1364v-152h-651v152h651z" />
    <glyph glyph-name="plusminus" unicode="&#xb1;" horiz-adv-x="1391" 
d="M772 812h399v-152h-399v-430h-152v430h-400v152h400v430h152v-430zM1171 152v-152h-951v152h951z" />
    <glyph glyph-name="acute" unicode="&#xb4;" horiz-adv-x="682" 
d="M417 1451h181l-201 -270h-145z" />
    <glyph glyph-name="mu" unicode="&#xb5;" horiz-adv-x="1185" 
d="M893 1112h152v-1033h-152v235q-129 -131 -301 -131q-171 0 -300 131v-675h-152v1473h152v-411q0 -151 88 -259q88 -107 212 -107t213 107q88 108 88 259v411z" />
    <glyph glyph-name="paragraph" unicode="&#xb6;" horiz-adv-x="1244" 
d="M1104 1473v-132h-115v-1341h-132v1341h-67v-1341h-142v465q-222 38 -364 177q-144 141 -144 322t144 321q142 139 364 188h456z" />
    <glyph glyph-name="periodcentered" unicode="&#xb7;" horiz-adv-x="559" 
d="M139.996 806.696h137.696v-137.696h-137.696v137.696z" />
    <glyph glyph-name="periodcentered" unicode="&#x2219;" horiz-adv-x="559" 
d="M139.996 806.696h137.696v-137.696h-137.696v137.696z" />
    <glyph glyph-name="cedilla" unicode="&#xb8;" horiz-adv-x="682" 
d="M151 -474q68 -8 126 -8q148 11 209.5 66.5t64.5 134.5q0 57 -40 106.5t-112 64.5l30 110h-139l-56 -205q83 -5 109.5 -11t45.5 -22t22 -36v-3q0 -36 -37 -58q-39 -24 -91 -27l-49 -1h-57z" />
    <glyph glyph-name="guillemotright" unicode="&#xbb;" horiz-adv-x="1218" 
d="M314 968l419 -419l-419 -421h-214l420 421l-419 419h213zM731 968l419 -419l-419 -421h-214l420 421l-419 419h213z" />
    <glyph glyph-name="questiondown" unicode="&#xbf;" horiz-adv-x="1109" 
d="M288 -292q-148 91 -148 249v168q0 134 88 208q51 43 160 82q96 36 129 67q45 42 45 136v141h152v-141q0 -164 -101 -253q-57 -51 -177 -94q-83 -31 -111 -55q-33 -29 -33 -91v-168q0 -85 98 -132q81 -38 184 -38q104 0 184 38q98 47 98 132v76h152v-76q0 -158 -148 -249
q-119 -73 -286 -73t-286 73zM719 950h-162v162h162v-162z" />
    <glyph glyph-name="Agrave" unicode="&#xc0;" horiz-adv-x="1054" 
d="M295 399l-126 -399h-159l465 1476h104l465 -1476h-159l-126 399h-464zM713 547q-139 442 -186 639q-46 -197 -186 -639h372zM642 1545h-145l-201 270h181z" />
    <glyph glyph-name="Aacute" unicode="&#xc1;" horiz-adv-x="1054" 
d="M295 399l-126 -399h-159l465 1476h104l465 -1476h-159l-126 399h-464zM713 547q-139 442 -186 639q-46 -197 -186 -639h372zM577 1815h181l-201 -270h-145z" />
    <glyph glyph-name="Acircumflex" unicode="&#xc2;" horiz-adv-x="1054" 
d="M295 399l-126 -399h-159l465 1476h104l465 -1476h-159l-126 399h-464zM713 547q-139 442 -186 639q-46 -197 -186 -639h372zM805 1538l-182 273h-191l-182 -273h144l134 183l133 -183h144z" />
    <glyph glyph-name="Adieresis" unicode="&#xc4;" horiz-adv-x="1054" 
d="M295 399l-126 -399h-159l465 1476h104l465 -1476h-159l-126 399h-464zM713 547q-139 442 -186 639q-46 -197 -186 -639h372zM248 1768h162v-162h-162v162zM644 1768h162v-162h-162v162z" />
    <glyph glyph-name="Aring" unicode="&#xc5;" horiz-adv-x="1054" 
d="M295 399l-126 -399h-159l465 1476h104l465 -1476h-159l-126 399h-464zM713 547q-139 442 -186 639q-46 -197 -186 -639h372zM528 1800q-67 0 -115 -48t-48 -114q0 -67 48 -115t115 -48q66 0 114 48t48 115q0 66 -48 114t-114 48zM574 1684q19 -19 19 -46q0 -28 -19 -47
t-46 -19q-28 0 -47 19t-19 47q0 27 19 46t47 19q27 0 46 -19z" />
    <glyph glyph-name="AE" unicode="&#xc6;" horiz-adv-x="1880" 
d="M1078 1323h-246l-282 -574h528v574zM10 0l727 1475h1103v-152h-610v-574h610v-152h-610v-443h610v-152h-762v595h-603l-295 -597h-170z" />
    <glyph glyph-name="Ccedilla" unicode="&#xc7;" horiz-adv-x="1265" 
d="M960 1404q165 -106 165 -289v-76h-152v86q0 100 -95 161q-99 63 -245 63q-137 0 -232 -54q-109 -62 -109 -170v-779q0 -108 109 -170q95 -54 232 -54q136 0 231 54q109 62 109 170v86h152v-76q0 -184 -165 -289q-136 -87 -327 -87q-192 0 -328 87q-165 105 -165 289v759
q0 183 165 289q136 87 328 87q191 0 327 -87zM459 -363h57l49 1q51 3 91 27q37 22 37 58v3q-3 20 -22 36t-45.5 22t-109.5 11l56 205h139l-31 -110q72 -15 112.5 -64.5t40.5 -106.5q-4 -79 -65 -134.5t-209 -66.5q-58 0 -127 8z" />
    <glyph glyph-name="Egrave" unicode="&#xc8;" horiz-adv-x="993" 
d="M140 1476h813v-142h-661v-520h558v-142h-558v-530h661v-142h-813v1476zM662 1545h-145l-201 270h181z" />
    <glyph glyph-name="Eacute" unicode="&#xc9;" horiz-adv-x="993" 
d="M140 1476h813v-142h-661v-520h558v-142h-558v-530h661v-142h-813v1476zM596 1815h181l-201 -270h-145z" />
    <glyph glyph-name="Ecircumflex" unicode="&#xca;" horiz-adv-x="993" 
d="M140 1476h813v-142h-661v-520h558v-142h-558v-530h661v-142h-813v1476zM824 1538l-182 273h-191l-182 -273h144l134 183l133 -183h144z" />
    <glyph glyph-name="Edieresis" unicode="&#xcb;" horiz-adv-x="993" 
d="M140 1476h813v-142h-661v-520h558v-142h-558v-530h661v-142h-813v1476zM267 1768h162v-162h-162v162zM663 1768h162v-162h-162v162z" />
    <glyph glyph-name="Igrave" unicode="&#xcc;" horiz-adv-x="472" 
d="M160 1476h152v-1476h-152v1476zM351 1545h-145l-201 270h181z" />
    <glyph glyph-name="Iacute" unicode="&#xcd;" horiz-adv-x="472" 
d="M160 1476h152v-1476h-152v1476zM286 1815h181l-201 -270h-145z" />
    <glyph glyph-name="Icircumflex" unicode="&#xce;" horiz-adv-x="472" 
d="M160 1476h152v-1476h-152v1476zM514 1538l-182 273h-191l-182 -273h144l134 183l133 -183h144z" />
    <glyph glyph-name="Idieresis" unicode="&#xcf;" horiz-adv-x="472" 
d="M160 1476h152v-1476h-152v1476zM-43 1768h162v-162h-162v162zM353 1768h162v-162h-162v162z" />
    <glyph glyph-name="Eth" unicode="&#xd0;" horiz-adv-x="1353" 
d="M779 1473q179 0 307 -127q127 -127 127 -307v-605q0 -180 -127 -307q-128 -127 -307 -127h-434v660h-205v152h205v661h434zM1061 1039q0 117 -83 200q-82 82 -199 82h-282v-509h217v-152h-217v-508h282q117 0 199 82q83 83 83 200v605z" />
    <glyph glyph-name="Ntilde" unicode="&#xd1;" horiz-adv-x="1177" 
d="M262 1476l623 -1128v1130h152v-1478h-119l-626 1132v-1130h-152v1474h122zM686 1551q-57 0 -95 24q-26 17 -42 37q-18 21 -29 29q-10 10 -31 11q-27 -2 -39 -15q-19 -20 -19 -58h-94q0 100 49 147q39 38 102 38h1q57 0 95 -32q20 -19 50 -43t52 -24h1q27 1 39 14
q20 20 20 59h94q0 -102 -49 -149q-39 -38 -103 -38h-2z" />
    <glyph glyph-name="Ograve" unicode="&#xd2;" horiz-adv-x="1265" 
d="M960 1404q165 -106 165 -289v-759q0 -184 -165 -289q-136 -87 -327 -87q-192 0 -328 87q-165 105 -165 289v759q0 183 165 289q136 87 328 87q191 0 327 -87zM973 1125q0 108 -109 170q-95 54 -231 54q-137 0 -232 -54q-109 -62 -109 -170v-779q0 -108 109 -170
q95 -54 232 -54q136 0 231 54q109 62 109 170v779zM748 1545h-145l-201 270h181z" />
    <glyph glyph-name="Oacute" unicode="&#xd3;" horiz-adv-x="1265" 
d="M960 1404q165 -106 165 -289v-759q0 -184 -165 -289q-136 -87 -327 -87q-192 0 -328 87q-165 105 -165 289v759q0 183 165 289q136 87 328 87q191 0 327 -87zM973 1125q0 108 -109 170q-95 54 -231 54q-137 0 -232 -54q-109 -62 -109 -170v-779q0 -108 109 -170
q95 -54 232 -54q136 0 231 54q109 62 109 170v779zM682 1815h181l-201 -270h-145z" />
    <glyph glyph-name="Ocircumflex" unicode="&#xd4;" horiz-adv-x="1265" 
d="M960 1404q165 -106 165 -289v-759q0 -184 -165 -289q-136 -87 -327 -87q-192 0 -328 87q-165 105 -165 289v759q0 183 165 289q136 87 328 87q191 0 327 -87zM973 1125q0 108 -109 170q-95 54 -231 54q-137 0 -232 -54q-109 -62 -109 -170v-779q0 -108 109 -170
q95 -54 232 -54q136 0 231 54q109 62 109 170v779zM910 1538l-182 273h-191l-182 -273h144l134 183l133 -183h144z" />
    <glyph glyph-name="Otilde" unicode="&#xd5;" horiz-adv-x="1265" 
d="M960 1404q165 -106 165 -289v-759q0 -184 -165 -289q-136 -87 -327 -87q-192 0 -328 87q-165 105 -165 289v759q0 183 165 289q136 87 328 87q191 0 327 -87zM973 1125q0 108 -109 170q-95 54 -231 54q-137 0 -232 -54q-109 -62 -109 -170v-779q0 -108 109 -170
q95 -54 232 -54q136 0 231 54q109 62 109 170v779zM730 1551q-57 0 -95 24q-26 17 -42 37q-18 21 -29 29q-10 10 -31 11q-27 -2 -39 -15q-19 -20 -19 -58h-94q0 100 49 147q39 38 102 38h1q57 0 95 -32q20 -19 50 -43t52 -24h1q27 1 39 14q20 20 20 59h94q0 -102 -49 -149
q-39 -38 -103 -38h-2z" />
    <glyph glyph-name="Odieresis" unicode="&#xd6;" horiz-adv-x="1265" 
d="M960 1404q165 -106 165 -289v-759q0 -184 -165 -289q-136 -87 -327 -87q-192 0 -328 87q-165 105 -165 289v759q0 183 165 289q136 87 328 87q191 0 327 -87zM973 1125q0 108 -109 170q-95 54 -231 54q-137 0 -232 -54q-109 -62 -109 -170v-779q0 -108 109 -170
q95 -54 232 -54q136 0 231 54q109 62 109 170v779zM353 1768h162v-162h-162v162zM749 1768h162v-162h-162v162z" />
    <glyph glyph-name="multiply" unicode="&#xd7;" horiz-adv-x="1023" 
d="M512 844l282 282l107 -108l-282 -282l304 -304l-107 -107l-304 304l-283 -283l-108 108l283 282l-304 304l107 108z" />
    <glyph glyph-name="Oslash" unicode="&#xd8;" horiz-adv-x="1342" 
d="M1051 1592l134 -73l-105 -187q84 -94 84 -220v-749q0 -184 -166 -289q-136 -87 -327 -87q-160 0 -286 63l-90 -165l-134 73l101 185q-83 94 -83 220v749q0 183 165 289q136 87 327 87q160 0 286 -64zM331 363q0 -37 13 -70l541 998q-92 45 -214 45q-136 0 -232 -54
q-108 -62 -108 -170v-749zM1012 1112q0 37 -14 69l-541 -998q92 -44 214 -44q136 0 232 54q109 62 109 170v749z" />
    <glyph glyph-name="Ugrave" unicode="&#xd9;" horiz-adv-x="1204" 
d="M912 1476h152v-1122q0 -176 -145 -281q-131 -95 -317 -95q-180 0 -309 88q-153 106 -153 288v1122h152v-1132q0 -108 99 -170q87 -54 211 -54t211 54q99 62 99 170v1132zM717 1545h-145l-201 270h181z" />
    <glyph glyph-name="Uacute" unicode="&#xda;" horiz-adv-x="1204" 
d="M912 1476h152v-1122q0 -176 -145 -281q-131 -95 -317 -95q-180 0 -309 88q-153 106 -153 288v1122h152v-1132q0 -108 99 -170q87 -54 211 -54t211 54q99 62 99 170v1132zM652 1815h181l-201 -270h-145z" />
    <glyph glyph-name="Ucircumflex" unicode="&#xdb;" horiz-adv-x="1204" 
d="M912 1476h152v-1122q0 -176 -145 -281q-131 -95 -317 -95q-180 0 -309 88q-153 106 -153 288v1122h152v-1132q0 -108 99 -170q87 -54 211 -54t211 54q99 62 99 170v1132zM880 1538l-182 273h-191l-182 -273h144l134 183l133 -183h144z" />
    <glyph glyph-name="Udieresis" unicode="&#xdc;" horiz-adv-x="1204" 
d="M912 1476h152v-1122q0 -176 -145 -281q-131 -95 -317 -95q-180 0 -309 88q-153 106 -153 288v1122h152v-1132q0 -108 99 -170q87 -54 211 -54t211 54q99 62 99 170v1132zM323 1768h162v-162h-162v162zM719 1768h162v-162h-162v162z" />
    <glyph glyph-name="Yacute" unicode="&#xdd;" horiz-adv-x="1038" 
d="M1028 1476l-434 -867v-609h-152v609l-432 867h170l338 -699l340 699h170zM569 1815h181l-201 -270h-145z" />
    <glyph glyph-name="Thorn" unicode="&#xde;" horiz-adv-x="1115" 
d="M292 1176h384q172 0 276 -140q95 -127 95 -306q0 -174 -88 -298q-105 -148 -283 -148h-384v-284h-152v1476h152v-300zM292 426h384q100 0 159 84q60 84 60 220q0 128 -54 210q-60 94 -165 94h-384v-608z" />
    <glyph glyph-name="germandbls" unicode="&#xdf;" horiz-adv-x="1237" 
d="M861 673q140 -77 192 -201q28 -65 28 -132q0 -40 -10 -80q-26 -111 -111 -183q-85 -73 -192 -77h-36q-212 0 -323 143l-47 60l120 93l47 -60q40 -51 90 -69q42 -15 117 -15h26q56 2 102 43q45 40 60 101q6 25 6 49q0 116 -143 195q-182 101 -208 206q-4 17 -4 35
q0 74 66 179q83 131 83 227q0 140 -189 144h-15q-149 0 -194 -64q-28 -41 -33 -174l-1 -19v-1067h-152v1072l1 20q6 168 55 246q86 138 326 138h16q199 -4 284 -118q54 -73 54 -178q0 -140 -106 -308q-44 -70 -44 -92v-4q10 -41 135 -110z" />
    <glyph glyph-name="agrave" unicode="&#xe0;" 
d="M604 132q58 0 99 41t41 99v161q0 58 -41 99t-99 41h-173q-57 0 -98 -41t-41 -99v-161q0 -58 41 -99t98 -41h173zM161 840q6 108 84 186q86 86 206 86h153q121 0 206 -86q86 -85 86 -206v-820h-152v86q-45 -86 -140 -86h-173q-120 0 -206 86q-85 85 -85 206v121
q0 121 85 206q86 86 206 86h173q95 0 140 -86v231q0 58 -41 99t-99 41h-153q-57 0 -98 -41q-36 -36 -40 -109h-152zM633 1181h-145l-201 270h181z" />
    <glyph glyph-name="aacute" unicode="&#xe1;" 
d="M604 132q58 0 99 41t41 99v161q0 58 -41 99t-99 41h-173q-57 0 -98 -41t-41 -99v-161q0 -58 41 -99t98 -41h173zM161 840q6 108 84 186q86 86 206 86h153q121 0 206 -86q86 -85 86 -206v-820h-152v86q-45 -86 -140 -86h-173q-120 0 -206 86q-85 85 -85 206v121
q0 121 85 206q86 86 206 86h173q95 0 140 -86v231q0 58 -41 99t-99 41h-153q-57 0 -98 -41q-36 -36 -40 -109h-152zM568 1451h181l-201 -270h-145z" />
    <glyph glyph-name="acircumflex" unicode="&#xe2;" 
d="M604 132q58 0 99 41t41 99v161q0 58 -41 99t-99 41h-173q-57 0 -98 -41t-41 -99v-161q0 -58 41 -99t98 -41h173zM161 840q6 108 84 186q86 86 206 86h153q121 0 206 -86q86 -85 86 -206v-820h-152v86q-45 -86 -140 -86h-173q-120 0 -206 86q-85 85 -85 206v121
q0 121 85 206q86 86 206 86h173q95 0 140 -86v231q0 58 -41 99t-99 41h-153q-57 0 -98 -41q-36 -36 -40 -109h-152zM796 1174l-182 273h-191l-182 -273h144l134 183l133 -183h144z" />
    <glyph glyph-name="atilde" unicode="&#xe3;" 
d="M604 132q58 0 99 41t41 99v161q0 58 -41 99t-99 41h-173q-57 0 -98 -41t-41 -99v-161q0 -58 41 -99t98 -41h173zM161 840q6 108 84 186q86 86 206 86h153q121 0 206 -86q86 -85 86 -206v-820h-152v86q-45 -86 -140 -86h-173q-120 0 -206 86q-85 85 -85 206v121
q0 121 85 206q86 86 206 86h173q95 0 140 -86v231q0 58 -41 99t-99 41h-153q-57 0 -98 -41q-36 -36 -40 -109h-152zM616 1187q-57 0 -95 24q-26 17 -42 37q-18 21 -29 29q-10 10 -31 11q-27 -2 -39 -15q-19 -20 -19 -58h-94q0 100 49 147q39 38 102 38h1q57 0 95 -32
q20 -19 50 -43t52 -24h1q27 1 39 14q20 20 20 59h94q0 -102 -49 -149q-39 -38 -103 -38h-2z" />
    <glyph glyph-name="adieresis" unicode="&#xe4;" 
d="M604 132q58 0 99 41t41 99v161q0 58 -41 99t-99 41h-173q-57 0 -98 -41t-41 -99v-161q0 -58 41 -99t98 -41h173zM161 840q6 108 84 186q86 86 206 86h153q121 0 206 -86q86 -85 86 -206v-820h-152v86q-45 -86 -140 -86h-173q-120 0 -206 86q-85 85 -85 206v121
q0 121 85 206q86 86 206 86h173q95 0 140 -86v231q0 58 -41 99t-99 41h-153q-57 0 -98 -41q-36 -36 -40 -109h-152zM239 1404h162v-162h-162v162zM635 1404h162v-162h-162v162z" />
    <glyph glyph-name="aring" unicode="&#xe5;" 
d="M604 132q58 0 99 41t41 99v161q0 58 -41 99t-99 41h-173q-57 0 -98 -41t-41 -99v-161q0 -58 41 -99t98 -41h173zM161 840q6 108 84 186q86 86 206 86h153q121 0 206 -86q86 -85 86 -206v-820h-152v86q-45 -86 -140 -86h-173q-120 0 -206 86q-85 85 -85 206v121
q0 121 85 206q86 86 206 86h173q95 0 140 -86v231q0 58 -41 99t-99 41h-153q-57 0 -98 -41q-36 -36 -40 -109h-152zM519 1469q-67 0 -115 -48t-48 -114q0 -67 48 -115t115 -48q66 0 114 48t48 115q0 66 -48 114t-114 48zM565 1353q19 -19 19 -46q0 -28 -19 -47t-46 -19
q-28 0 -47 19t-19 47q0 27 19 46t47 19q27 0 46 -19z" />
    <glyph glyph-name="ae" unicode="&#xe6;" horiz-adv-x="1597" 
d="M896 35v-35h-152v86q-45 -86 -140 -86h-173q-120 0 -206 86q-85 85 -85 206v121q0 121 85 206q86 86 206 86h173q95 0 140 -86v231q0 58 -41 99t-99 41h-153q-57 0 -98 -41q-36 -36 -40 -109h-152q6 108 84 186q86 86 206 86h153q121 0 206 -86l10 -10q4 5 9 10
q86 86 206 86h173q121 0 206 -86q86 -85 86 -206v-340h-604v-208q0 -58 41 -99t98 -41h173q58 0 99 41t41 119h152q0 -121 -86 -206q-85 -86 -206 -86h-173q-76 0 -139 35zM896 612h452v228q0 58 -41 99t-99 41h-173q-57 0 -98 -41t-41 -99v-228zM744 433q0 58 -41 99
t-99 41h-173q-57 0 -98 -41t-41 -99v-161q0 -58 41 -99t98 -41h173q58 0 99 41t41 99v161z" />
    <glyph glyph-name="ccedilla" unicode="&#xe7;" 
d="M604 1112q121 0 206 -86q86 -85 86 -206v-76h-152v96q0 58 -41 99t-99 41h-173q-57 0 -98 -41t-41 -99v-568q0 -58 41 -99t98 -41h173q58 0 99 41t41 99v96h152v-76q0 -121 -86 -206q-85 -86 -206 -86h-173q-120 0 -206 86q-85 85 -85 206v528q0 121 85 206q86 86 206 86
h173zM318 -474q68 -8 126 -8q148 11 209.5 66.5t64.5 134.5q0 57 -40 106.5t-112 64.5l30 110h-139l-56 -205q83 -5 109.5 -11t45.5 -22t22 -36v-3q0 -36 -37 -58q-39 -24 -91 -27l-49 -1h-57z" />
    <glyph glyph-name="egrave" unicode="&#xe8;" 
d="M604 1112q121 0 206 -86q86 -85 86 -206v-340h-604v-208q0 -58 41 -99t98 -41h173q58 0 99 41t41 119h152q0 -121 -86 -206q-85 -86 -206 -86h-173q-120 0 -206 86q-85 85 -85 206v528q0 121 85 206q86 86 206 86h173zM744 840q0 58 -41 99t-99 41h-173q-57 0 -98 -41
t-41 -99v-228h452v228zM633 1181h-145l-201 270h181z" />
    <glyph glyph-name="eacute" unicode="&#xe9;" 
d="M604 1112q121 0 206 -86q86 -85 86 -206v-340h-604v-208q0 -58 41 -99t98 -41h173q58 0 99 41t41 119h152q0 -121 -86 -206q-85 -86 -206 -86h-173q-120 0 -206 86q-85 85 -85 206v528q0 121 85 206q86 86 206 86h173zM744 840q0 58 -41 99t-99 41h-173q-57 0 -98 -41
t-41 -99v-228h452v228zM568 1451h181l-201 -270h-145z" />
    <glyph glyph-name="ecircumflex" unicode="&#xea;" 
d="M604 1112q121 0 206 -86q86 -85 86 -206v-340h-604v-208q0 -58 41 -99t98 -41h173q58 0 99 41t41 119h152q0 -121 -86 -206q-85 -86 -206 -86h-173q-120 0 -206 86q-85 85 -85 206v528q0 121 85 206q86 86 206 86h173zM744 840q0 58 -41 99t-99 41h-173q-57 0 -98 -41
t-41 -99v-228h452v228zM796 1174l-182 273h-191l-182 -273h144l134 183l133 -183h144z" />
    <glyph glyph-name="edieresis" unicode="&#xeb;" 
d="M604 1112q121 0 206 -86q86 -85 86 -206v-340h-604v-208q0 -58 41 -99t98 -41h173q58 0 99 41t41 119h152q0 -121 -86 -206q-85 -86 -206 -86h-173q-120 0 -206 86q-85 85 -85 206v528q0 121 85 206q86 86 206 86h173zM744 840q0 58 -41 99t-99 41h-173q-57 0 -98 -41
t-41 -99v-228h452v228zM239 1404h162v-162h-162v162zM635 1404h162v-162h-162v162z" />
    <glyph glyph-name="igrave" unicode="&#xec;" horiz-adv-x="472" 
d="M160 1112h152v-1112h-152v1112zM351 1181h-145l-201 270h181z" />
    <glyph glyph-name="iacute" unicode="&#xed;" horiz-adv-x="472" 
d="M160 1112h152v-1112h-152v1112zM286 1451h181l-201 -270h-145z" />
    <glyph glyph-name="icircumflex" unicode="&#xee;" horiz-adv-x="472" 
d="M160 1112h152v-1112h-152v1112zM514 1174l-182 273h-191l-182 -273h144l134 183l133 -183h144z" />
    <glyph glyph-name="idieresis" unicode="&#xef;" horiz-adv-x="472" 
d="M160 1112h152v-1112h-152v1112zM-43 1404h162v-162h-162v162zM353 1404h162v-162h-162v162z" />
    <glyph glyph-name="eth" unicode="&#xf0;" horiz-adv-x="1109" 
d="M955 1403l49 -144l-193 -67q65 -92 107 -209q60 -164 68 -335v-242q0 -168 -130 -287t-313 -119t-313 119t-130 287v220q0 168 130 287q130 120 313 120q113 0 211 -50q-39 90 -93 158l-247 -86l-50 144l168 58q-68 44 -148 67l-73 21l42 146l73 -21q159 -45 278 -154z
M834 641q-7 100 -91 170t-200 70q-120 0 -206 -75q-85 -75 -85 -180v-220q0 -105 85 -180q86 -74 206 -74q121 0 206 74q85 75 85 180v235z" />
    <glyph glyph-name="ntilde" unicode="&#xf1;" 
d="M604 1112q121 0 206 -86q86 -85 86 -206v-820h-152v840q0 58 -41 99t-99 41h-173q-57 0 -98 -41t-41 -99v-840h-152v1112h152v-86q45 86 139 86h173zM616 1187q-57 0 -95 24q-26 17 -42 37q-18 21 -29 29q-10 10 -31 11q-27 -2 -39 -15q-19 -20 -19 -58h-94q0 100 49 147
q39 38 102 38h1q57 0 95 -32q20 -19 50 -43t52 -24h1q27 1 39 14q20 20 20 59h94q0 -102 -49 -149q-39 -38 -103 -38h-2z" />
    <glyph glyph-name="ograve" unicode="&#xf2;" 
d="M604 1112q121 0 206 -86q86 -85 86 -206v-528q0 -121 -86 -206q-85 -86 -206 -86h-173q-120 0 -206 86q-85 85 -85 206v528q0 121 85 206q86 86 206 86h173zM744 840q0 58 -41 99t-99 41h-173q-57 0 -98 -41t-41 -99v-568q0 -58 41 -99t98 -41h173q58 0 99 41t41 99v568z
M633 1181h-145l-201 270h181z" />
    <glyph glyph-name="oacute" unicode="&#xf3;" 
d="M604 1112q121 0 206 -86q86 -85 86 -206v-528q0 -121 -86 -206q-85 -86 -206 -86h-173q-120 0 -206 86q-85 85 -85 206v528q0 121 85 206q86 86 206 86h173zM744 840q0 58 -41 99t-99 41h-173q-57 0 -98 -41t-41 -99v-568q0 -58 41 -99t98 -41h173q58 0 99 41t41 99v568z
M568 1451h181l-201 -270h-145z" />
    <glyph glyph-name="ocircumflex" unicode="&#xf4;" 
d="M604 1112q121 0 206 -86q86 -85 86 -206v-528q0 -121 -86 -206q-85 -86 -206 -86h-173q-120 0 -206 86q-85 85 -85 206v528q0 121 85 206q86 86 206 86h173zM744 840q0 58 -41 99t-99 41h-173q-57 0 -98 -41t-41 -99v-568q0 -58 41 -99t98 -41h173q58 0 99 41t41 99v568z
M796 1174l-182 273h-191l-182 -273h144l134 183l133 -183h144z" />
    <glyph glyph-name="otilde" unicode="&#xf5;" 
d="M604 1112q121 0 206 -86q86 -85 86 -206v-528q0 -121 -86 -206q-85 -86 -206 -86h-173q-120 0 -206 86q-85 85 -85 206v528q0 121 85 206q86 86 206 86h173zM744 840q0 58 -41 99t-99 41h-173q-57 0 -98 -41t-41 -99v-568q0 -58 41 -99t98 -41h173q58 0 99 41t41 99v568z
M616 1187q-57 0 -95 24q-26 17 -42 37q-18 21 -29 29q-10 10 -31 11q-27 -2 -39 -15q-19 -20 -19 -58h-94q0 100 49 147q39 38 102 38h1q57 0 95 -32q20 -19 50 -43t52 -24h1q27 1 39 14q20 20 20 59h94q0 -102 -49 -149q-39 -38 -103 -38h-2z" />
    <glyph glyph-name="odieresis" unicode="&#xf6;" 
d="M604 1112q121 0 206 -86q86 -85 86 -206v-528q0 -121 -86 -206q-85 -86 -206 -86h-173q-120 0 -206 86q-85 85 -85 206v528q0 121 85 206q86 86 206 86h173zM744 840q0 58 -41 99t-99 41h-173q-57 0 -98 -41t-41 -99v-568q0 -58 41 -99t98 -41h173q58 0 99 41t41 99v568z
M239 1404h162v-162h-162v162zM635 1404h162v-162h-162v162z" />
    <glyph glyph-name="divide" unicode="&#xf7;" horiz-adv-x="837" 
d="M1171 812v-152h-951v152h951zM338 341h162v-162h-162v162zM338 1291h162v-162h-162v162z" />
    <glyph glyph-name="oslash" unicode="&#xf8;" horiz-adv-x="997" 
d="M754 1196l133 -72l-69 -128q58 -78 58 -175v-528q0 -121 -85 -206q-85 -86 -206 -86h-173q-62 0 -119 26l-49 -92l-134 72l64 118q-53 76 -53 168v528q0 121 85 206q86 86 206 86h173q58 0 112 -22zM273 308l350 647q-19 6 -38 6h-173q-58 0 -98 -41q-41 -41 -41 -99
v-513zM724 823l-358 -662q23 -8 46 -8h173q58 0 99 41q40 41 40 99v530z" />
    <glyph glyph-name="ugrave" unicode="&#xf9;" 
d="M744 1112h152v-820q0 -121 -86 -206q-85 -86 -206 -86h-173q-120 0 -206 86q-85 85 -85 206v820h152v-820q0 -58 41 -99t98 -41h173q58 0 99 41t41 99v820zM633 1181h-145l-201 270h181z" />
    <glyph glyph-name="uacute" unicode="&#xfa;" 
d="M744 1112h152v-820q0 -121 -86 -206q-85 -86 -206 -86h-173q-120 0 -206 86q-85 85 -85 206v820h152v-820q0 -58 41 -99t98 -41h173q58 0 99 41t41 99v820zM568 1451h181l-201 -270h-145z" />
    <glyph glyph-name="ucircumflex" unicode="&#xfb;" 
d="M744 1112h152v-820q0 -121 -86 -206q-85 -86 -206 -86h-173q-120 0 -206 86q-85 85 -85 206v820h152v-820q0 -58 41 -99t98 -41h173q58 0 99 41t41 99v820zM796 1174l-182 273h-191l-182 -273h144l134 183l133 -183h144z" />
    <glyph glyph-name="udieresis" unicode="&#xfc;" 
d="M744 1112h152v-820q0 -121 -86 -206q-85 -86 -206 -86h-173q-120 0 -206 86q-85 85 -85 206v820h152v-820q0 -58 41 -99t98 -41h173q58 0 99 41t41 99v820zM239 1404h162v-162h-162v162zM635 1404h162v-162h-162v162z" />
    <glyph glyph-name="yacute" unicode="&#xfd;" horiz-adv-x="848" 
d="M838 1112l-300 -957l-90 -286q-36 -115 -136 -173q-71 -32 -142 -32q-45 0 -88 14l-72 23l46 145l72 -23q22 -7 43 -7q32 0 63 16q52 27 69 82l60 189l-317 1009h159l237 -754l237 754h159zM474 1451h181l-201 -270h-145z" />
    <glyph glyph-name="thorn" unicode="&#xfe;" 
d="M292 1025q45 86 139 86h173q121 0 206 -86q86 -85 86 -206v-528q0 -121 -86 -206q-85 -86 -206 -86h-173q-74 0 -139 36v-399h-152v1840h152v-451zM292 271q0 -58 41 -99t98 -41h173q58 0 99 41t41 99v568q0 58 -41 99t-99 41h-173q-57 0 -98 -41t-41 -99v-568z" />
    <glyph glyph-name="ydieresis" unicode="&#xff;" horiz-adv-x="848" 
d="M838 1112l-300 -957l-90 -286q-36 -115 -136 -173q-71 -32 -142 -32q-45 0 -88 14l-72 23l46 145l72 -23q22 -7 43 -7q32 0 63 16q52 27 69 82l60 189l-317 1009h159l237 -754l237 754h159zM145 1404h162v-162h-162v162zM541 1404h162v-162h-162v162z" />
    <glyph glyph-name="dotlessi" unicode="&#x131;" horiz-adv-x="472" 
d="M160 1112h152v-1112h-152v1112z" />
    <glyph glyph-name="circumflex" unicode="&#x2c6;" horiz-adv-x="717" 
d="M636 1174l-182 273h-191l-182 -273h144l134 183l133 -183h144z" />
    <glyph glyph-name="caron" unicode="&#x2c7;" horiz-adv-x="717" 
d="M492 1447l-133 -183l-134 183h-144l182 -273h191l182 273h-144z" />
    <glyph glyph-name="uni02C9" unicode="&#x2c9;" horiz-adv-x="771" 
d="M671 1344v-122h-571v122h571z" />
    <glyph glyph-name="breve" unicode="&#x2d8;" horiz-adv-x="717" 
d="M502 1367q-143 -153 -287 0h-134q92 -183 277.5 -183t277.5 183h-134z" />
    <glyph glyph-name="dotaccent" unicode="&#x2d9;" horiz-adv-x="338" 
d="M100 1376h138v-138h-138v138z" />
    <glyph glyph-name="ring" unicode="&#x2da;" horiz-adv-x="345" 
d="M173 1469q-67 0 -115 -48t-48 -114q0 -67 48 -115t115 -48q66 0 114 48t48 115q0 66 -48 114t-114 48zM219 1353q19 -19 19 -46q0 -28 -19 -47t-46 -19q-28 0 -47 19t-19 47q0 27 19 46t47 19q27 0 46 -19z" />
    <glyph glyph-name="ogonek" unicode="&#x2db;" horiz-adv-x="466" 
d="M294 -184l58 -55q-29 -42 -68 -67q-38 -25 -80 -28h-9q-39 0 -74 16q-101 47 -101 150q2 42 32 74q33 32 112 94h157q-119 -82 -154 -123q-8 -9 -14 -17q-12 -15 -12 -34q1 -23 12.5 -36.5t40.5 -16.5q37 0 63 16z" />
    <glyph glyph-name="tilde" unicode="&#x2dc;" horiz-adv-x="543" 
d="M369 1187q-57 0 -95 24q-26 17 -42 37q-18 21 -29 29q-10 10 -31 11q-27 -2 -39 -15q-19 -20 -19 -58h-94q0 100 49 147q39 38 102 38h1q57 0 95 -32q20 -19 50 -43t52 -24h1q27 1 39 14q20 20 20 59h94q0 -102 -49 -149q-39 -38 -103 -38h-2z" />
    <glyph glyph-name="hungarumlaut" unicode="&#x2dd;" horiz-adv-x="1024" 
d="M384 1451h181l-201 -270h-145zM720 1451h181l-201 -270h-145z" />
    <glyph glyph-name="endash" unicode="&#x2013;" horiz-adv-x="737" 
d="M0 599h737v-99h-737v99z" />
    <glyph glyph-name="emdash" unicode="&#x2014;" horiz-adv-x="937" 
d="M0 609h937v-99h-937v99z" />
    <glyph glyph-name="quoteleft" unicode="&#x2018;" horiz-adv-x="442" 
d="M244 1236h49v-162h-162v162q13 111 96 239h75q-52 -132 -58 -239z" />
    <glyph glyph-name="quoteright" unicode="&#x2019;" horiz-adv-x="442" 
d="M189 1313h-49v162h162v-162q-13 -111 -96 -239h-75q52 132 58 239z" />
    <glyph glyph-name="quotesinglbase" unicode="&#x201a;" horiz-adv-x="442" 
d="M189 39h-49v162h162v-162q-13 -111 -96 -239h-75q52 132 58 239z" />
    <glyph glyph-name="quotedblleft" unicode="&#x201c;" horiz-adv-x="681" 
d="M244 1236h49v-162h-162v162q13 111 96 239h75q-52 -132 -58 -239zM483 1236h49v-162h-162v162q13 111 96 239h75q-52 -132 -58 -239z" />
    <glyph glyph-name="quotedblright" unicode="&#x201d;" horiz-adv-x="681" 
d="M189 1313h-49v162h162v-162q-13 -111 -96 -239h-75q52 132 58 239zM428 1313h-49v162h162v-162q-13 -111 -96 -239h-75q52 132 58 239z" />
    <glyph glyph-name="quotedblbase" unicode="&#x201e;" horiz-adv-x="681" 
d="M189 39h-49v162h162v-162q-13 -111 -96 -239h-75q52 132 58 239zM428 39h-49v162h162v-162q-13 -111 -96 -239h-75q52 132 58 239z" />
    <glyph glyph-name="dagger" unicode="&#x2020;" horiz-adv-x="1080" 
d="M460 -380h160v1840h-160v-1840zM1070 850v160h-1060v-160h1060z" />
    <glyph glyph-name="daggerdbl" unicode="&#x2021;" horiz-adv-x="1080" 
d="M460 -380h160v1840h-160v-1840zM1070 850v160h-1060v-160h1060zM1070 50v160h-1060v-160h1060z" />
    <glyph glyph-name="bullet" unicode="&#x2022;" horiz-adv-x="833" 
d="M640.5 927.5q92.5 -92.5 92.5 -223.5q0 -132 -92.5 -224.5t-224.5 -92.5q-131 0 -223.5 92.5t-92.5 224.5q0 131 92.5 223.5t223.5 92.5q132 0 224.5 -92.5z" />
    <glyph glyph-name="ellipsis" unicode="&#x2026;" horiz-adv-x="2048" 
d="M140 162h162v-162h-162v162zM823 162h162v-162h-162v162zM1506 162h162v-162h-162v162z" />
    <glyph glyph-name="guilsinglleft" unicode="&#x2039;" horiz-adv-x="829" 
d="M732 968l-419 -419l420 -421h-214l-419 421l419 419h213z" />
    <glyph glyph-name="guilsinglright" unicode="&#x203a;" horiz-adv-x="829" 
d="M314 968l419 -419l-419 -421h-214l420 421l-419 419h213z" />
    <glyph glyph-name="fraction" unicode="&#x2044;" horiz-adv-x="280" 
 />
    <glyph glyph-name="fraction" unicode="&#x2215;" horiz-adv-x="280" 
 />
    <glyph glyph-name="franc" unicode="&#x20a3;" horiz-adv-x="1087" 
d="M190 0h160v651h709v160h-709v489h709v160h-869v-1460zM-10 285h577v160h-577v-160z" />
    <glyph glyph-name="lira" unicode="&#x20a4;" horiz-adv-x="1215" 
d="M416 205q91 149 109 243h334v160h-326q-5 44 -19 87h345v160h-402q-46 200 47 345q65 100 164 100q127 0 200 -179l148 61q-54 131 -146 205q-92 73 -202 73q-187 0 -298 -173q-120 -186 -76 -432h-184v-160h233l11 -24t18 -63h-262v-160h251q-28 -113 -204 -355
l115 -101q94 58 287 77q72 -1 222 -34q161 -35 244 -35v160q-65 0 -210 31q-239 59 -399 14z" />
    <glyph glyph-name="peseta" unicode="&#x20a7;" horiz-adv-x="2107" 
d="M766 810q54 84 54 220q0 128 -49 210q-54 94 -149 94h-345v-608h345q90 0 144 84zM954 970q-12 -136 -77 -238q-94 -148 -255 -148h-345v-584h-137v1476h482q155 0 249 -140q67 -101 81 -234h123v374h152v-374h276q38 10 82 10h144q102 0 183 -65q80 -65 102 -164
l-149 -33q-10 68 -49 99q-38 31 -87 31h-144q-66 0 -103 -45q-36 -43 -36 -129q0 -66 28 -108q38 -56 111 -56h173q137 0 219 -102q75 -82 75 -214q0 -131 -75 -223q-82 -103 -219 -103h-515q-110 0 -149 82q-19 39 -19 128v760h-121zM1335 970h-108v-770q0 -54 17 -61
t65 -7h449q66 0 103 49q39 50 39 145q0 74 -29 122q-38 62 -113 62h-173q-136 0 -217 96q-74 77 -74 200q0 92 41 164z" />
    <glyph glyph-name="Euro" unicode="&#x20ac;" horiz-adv-x="1451" 
d="M1144 322l22 73l145 -45l-22 -73q-41 -134 -184 -210q-129 -67 -295 -67q-54 0 -105 7q-176 27 -281 127t-105 242v103h-179v152h179v183h-179v152h179v159q0 114 68 202q69 89 194 135q109 40 226 40q58 0 118 -10q196 -31 301 -153l49 -58l-116 -99l-49 58
q-66 77 -209 101q-49 8 -96 8q-90 0 -171 -30q-163 -60 -163 -194v-159h587v-152h-587v-183h545v-152h-545v-103q0 -108 106 -168q64 -37 151 -50q44 -7 87 -7q88 0 169 29q131 46 160 142z" />
    <glyph glyph-name="uni2116" unicode="&#x2116;" horiz-adv-x="1135" 
d="M865 347l-76 129l-76 149l-458 835h-145v-1460h160v1115l86 -139l67 -140l458 -836h144v1460h-160v-1113zM1200 -4h560v146h-560v-146zM1243 876q-88 -91 -88 -217t88 -217q88 -89 213 -89q124 0 213 89q88 91 88 217t-88 217q-89 89 -213 89q-125 0 -213 -89zM1332 533
q-51 52 -51 126t51 126q52 53 124 53t123 -53q51 -52 51 -126t-51 -126q-51 -53 -123 -53t-124 53z" />
    <glyph glyph-name="trademark" unicode="&#x2122;" horiz-adv-x="1113" 
d="M440.062 1466.44v-56.8027h-165.604v-533.633h-68.4023v533.633h-166.055v56.8027h400.062zM904.414 876v406.425l-174.604 -406.425h-46.8018l-174.604 406.425v-406.425h-68.4014v590.436h57.6016l208.806 -484.029l208.806 484.029h57.6016v-590.436h-68.4023z" />
    <glyph glyph-name="partialdiff" unicode="&#x2202;" horiz-adv-x="977" 
d="M736 671q-11 48 -49 78q-37 30 -86 30h-205q-56 0 -97 -40q-41 -41 -41 -97v-386q0 -56 41 -97t97 -41h205q56 0 97 41t41 97v395zM552 1124q-118 145 -280 154l-44 2l4 88l44 -2q156 -8 278 -117q34 -31 65 -70q102 -126 163 -323q43 -139 45 -241v-359q0 -94 -66 -160
t-160 -66h-205q-94 0 -160 66t-66 160v386q0 93 66 159q66 67 160 67h205q19 0 90 -13q-68 181 -139 269z" />
    <glyph glyph-name="Delta" unicode="&#x2206;" horiz-adv-x="1251" 
d="M95 30l545 1293l546 -1293h-1091zM1075 103l-435 1031l-434 -1031h869z" />
    <glyph glyph-name="product" unicode="&#x220f;" horiz-adv-x="1212" 
d="M1137 1370v-89h-223v-1251h-88v1251h-420v-1251h-88v1251h-223v89h1042z" />
    <glyph glyph-name="summation" unicode="&#x2211;" horiz-adv-x="1318" 
d="M254 1281l817 -581l-817 -581h964v-89h-1098v103l798 567l-798 567v103h1098v-89h-964z" />
    <glyph glyph-name="minus" unicode="&#x2212;" horiz-adv-x="1391" 
d="M1171 812v-152h-951v152h951z" />
    <glyph glyph-name="radical" unicode="&#x221a;" horiz-adv-x="991" 
d="M540 1646h391v-63h-337l-256 -1553h-81l-164 477l60 20l137 -399z" />
    <glyph glyph-name="infinity" unicode="&#x221e;" horiz-adv-x="2079" 
d="M523 355q-52 0 -103 16q-50 18 -95 51q-45 34 -80 83q-34 49 -54 116q-21 67 -21 151q0 86 21 153q20 66 55 116t81 84q46 33 95 50q51 17 101 17q91 -2 173 -37q85 -39 160 -103q78 -66 141 -147l52 -68l53 68q63 81 141 147q75 64 160 103q81 35 173 37q50 0 100 -17
t95 -50q46 -34 81 -84q35 -48 55 -116q21 -67 22 -153q-1 -86 -22 -153q-20 -67 -54 -115q-36 -51 -82 -83q-44 -33 -95 -49q-51 -17 -100 -17q-93 1 -173 36q-85 37 -160 101q-78 66 -141 147l-53 68l-52 -68q-64 -81 -141 -147q-76 -64 -160 -101q-81 -35 -173 -36z
M519 441q117 0 231 72q108 67 218 210l36 49l-36 49q-57 73 -122 136q-72 65 -149 103q-85 42 -178 43q-80 -1 -143 -43q-66 -41 -102 -117q-37 -74 -37 -171t37 -171q36 -76 102 -118q63 -41 143 -42zM1131 820l-37 -48l37 -49q59 -77 122 -137q70 -65 149 -103
q84 -41 178 -42q80 1 143 42q65 42 102 118q36 74 37 171q-1 101 -39 176t-103 115q-64 40 -140 40q-94 -1 -178 -42q-79 -39 -149 -103q-66 -62 -122 -138z" />
    <glyph glyph-name="integral" unicode="&#x222b;" horiz-adv-x="915" 
d="M618 1440q106 145 295 145h18l-12 -66h-1q-157 0 -244 -113q-58 -75 -71 -163q-34 -198 -103 -602q-69 -400 -103 -601q-14 -99 -79 -187q-106 -145 -295 -145h-18l12 66h1q157 0 244 113q58 75 71 163q35 201 103 601q69 402 103 602q14 99 79 187z" />
    <glyph glyph-name="approxequal" unicode="&#x2248;" horiz-adv-x="1000" 
d="M825 600q-98 -81 -195 -81h-15q-70 4 -179 67q-82 46 -120 46h-4q-57 -3 -129 -67v69q62 66 133 67q55 0 155 -57q97 -55 151 -57h5q86 0 198 87v-74zM825 398q-98 -81 -195 -81h-15q-70 4 -179 67q-82 46 -120 46h-4q-57 -3 -129 -67v69q62 66 133 67q55 0 155 -57
q97 -55 151 -57h5q86 0 198 87v-74z" />
    <glyph glyph-name="lessequal" unicode="&#x2264;" horiz-adv-x="887" 
d="M60 79h767v-69h-767v69zM61 640l763 425v-80l-683 -378l683 -377v-79l-763 423v66z" />
    <glyph glyph-name="greaterequal" unicode="&#x2265;" horiz-adv-x="887" 
d="M827 10h-767v69h767v-69zM826 574l-763 -423v79l683 377l-683 378v80l763 -425v-66z" />
    <glyph glyph-name="uniF001" unicode="&#xf001;" horiz-adv-x="1155" 
d="M255 1185q0 46 18 107q18 63 96 123q78 61 177 61h129v-132h-129q-57 0 -98 -41t-41 -99v-102h225v-132h-225v-970h-152v970h-115v132h115v83zM843 1112h152v-1112h-152v1112zM843 1475h152v-152h-152v152z" />
    <glyph glyph-name="uniF001" unicode="&#xfb01;" horiz-adv-x="1155" 
d="M255 1185q0 46 18 107q18 63 96 123q78 61 177 61h129v-132h-129q-57 0 -98 -41t-41 -99v-102h225v-132h-225v-970h-152v970h-115v132h115v83zM843 1112h152v-1112h-152v1112zM843 1475h152v-152h-152v152z" />
    <glyph glyph-name="uniF002" unicode="&#xf002;" horiz-adv-x="1155" 
d="M255 1185q0 46 18 107q18 63 96 123q78 61 177 61h129v-132h-129q-57 0 -98 -41t-41 -99v-102h225v-132h-225v-970h-152v970h-115v132h115v83zM843 1476h152v-1476h-152v1476z" />
    <glyph glyph-name="uniF002" unicode="&#xfb02;" horiz-adv-x="1155" 
d="M255 1185q0 46 18 107q18 63 96 123q78 61 177 61h129v-132h-129q-57 0 -98 -41t-41 -99v-102h225v-132h-225v-970h-152v970h-115v132h115v83zM843 1476h152v-1476h-152v1476z" />
    <glyph glyph-name="Amacron" unicode="&#x100;" horiz-adv-x="1054" 
d="M295 399l-126 -399h-159l465 1476h104l465 -1476h-159l-126 399h-464zM713 547q-139 442 -186 639q-46 -197 -186 -639h372zM813 1708v-122h-571v122h571z" />
    <glyph glyph-name="amacron" unicode="&#x101;" 
d="M604 132q58 0 99 41t41 99v161q0 58 -41 99t-99 41h-173q-57 0 -98 -41t-41 -99v-161q0 -58 41 -99t98 -41h173zM161 840q6 108 84 186q86 86 206 86h153q121 0 206 -86q86 -85 86 -206v-820h-152v86q-45 -86 -140 -86h-173q-120 0 -206 86q-85 85 -85 206v121
q0 121 85 206q86 86 206 86h173q95 0 140 -86v231q0 58 -41 99t-99 41h-153q-57 0 -98 -41q-36 -36 -40 -109h-152zM804 1344v-122h-571v122h571z" />
    <glyph glyph-name="Abreve" unicode="&#x102;" horiz-adv-x="1054" 
d="M295 399l-126 -399h-159l465 1476h104l465 -1476h-159l-126 399h-464zM713 547q-139 442 -186 639q-46 -197 -186 -639h372zM671 1731q-143 -153 -287 0h-134q92 -183 277.5 -183t277.5 183h-134z" />
    <glyph glyph-name="abreve" unicode="&#x103;" 
d="M604 132q58 0 99 41t41 99v161q0 58 -41 99t-99 41h-173q-57 0 -98 -41t-41 -99v-161q0 -58 41 -99t98 -41h173zM161 840q6 108 84 186q86 86 206 86h153q121 0 206 -86q86 -85 86 -206v-820h-152v86q-45 -86 -140 -86h-173q-120 0 -206 86q-85 85 -85 206v121
q0 121 85 206q86 86 206 86h173q95 0 140 -86v231q0 58 -41 99t-99 41h-153q-57 0 -98 -41q-36 -36 -40 -109h-152zM662 1367q-143 -153 -287 0h-134q92 -183 277.5 -183t277.5 183h-134z" />
    <glyph glyph-name="Aogonek" unicode="&#x104;" horiz-adv-x="1054" 
d="M295 399l-126 -399h-159l465 1476h104l465 -1476h-159l-126 399h-464zM713 547q-139 442 -186 639q-46 -197 -186 -639h372zM1015 -184l58 -55q-29 -42 -68 -67q-38 -25 -80 -28h-9q-39 0 -74 16q-101 47 -101 150q2 42 32 74q33 32 112 94h157q-119 -82 -154 -123
q-8 -9 -14 -17q-12 -15 -12 -34q1 -23 12.5 -36.5t40.5 -16.5q37 0 63 16z" />
    <glyph glyph-name="aogonek" unicode="&#x105;" 
d="M604 132q58 0 99 41t41 99v161q0 58 -41 99t-99 41h-173q-57 0 -98 -41t-41 -99v-161q0 -58 41 -99t98 -41h173zM161 840q6 108 84 186q86 86 206 86h153q121 0 206 -86q86 -85 86 -206v-820h-152v86q-45 -86 -140 -86h-173q-120 0 -206 86q-85 85 -85 206v121
q0 121 85 206q86 86 206 86h173q95 0 140 -86v231q0 58 -41 99t-99 41h-153q-57 0 -98 -41q-36 -36 -40 -109h-152zM871 -184l58 -55q-29 -42 -68 -67q-38 -25 -80 -28h-9q-39 0 -74 16q-101 47 -101 150q2 42 32 74q33 32 112 94h157q-119 -82 -154 -123q-8 -9 -14 -17
q-12 -15 -12 -34q1 -23 12.5 -36.5t40.5 -16.5q37 0 63 16z" />
    <glyph glyph-name="Cacute" unicode="&#x106;" horiz-adv-x="1265" 
d="M960 1404q165 -106 165 -289v-76h-152v86q0 100 -95 161q-99 63 -245 63q-137 0 -232 -54q-109 -62 -109 -170v-779q0 -108 109 -170q95 -54 232 -54q136 0 231 54q109 62 109 170v86h152v-76q0 -184 -165 -289q-136 -87 -327 -87q-192 0 -328 87q-165 105 -165 289v759
q0 183 165 289q136 87 328 87q191 0 327 -87zM682 1815h181l-201 -270h-145z" />
    <glyph glyph-name="cacute" unicode="&#x107;" 
d="M604 1112q121 0 206 -86q86 -85 86 -206v-76h-152v96q0 58 -41 99t-99 41h-173q-57 0 -98 -41t-41 -99v-568q0 -58 41 -99t98 -41h173q58 0 99 41t41 99v96h152v-76q0 -121 -86 -206q-85 -86 -206 -86h-173q-120 0 -206 86q-85 85 -85 206v528q0 121 85 206q86 86 206 86
h173zM568 1451h181l-201 -270h-145z" />
    <glyph glyph-name="Ccircumflex" unicode="&#x108;" horiz-adv-x="1265" 
d="M960 1404q165 -106 165 -289v-76h-152v86q0 100 -95 161q-99 63 -245 63q-137 0 -232 -54q-109 -62 -109 -170v-779q0 -108 109 -170q95 -54 232 -54q136 0 231 54q109 62 109 170v86h152v-76q0 -184 -165 -289q-136 -87 -327 -87q-192 0 -328 87q-165 105 -165 289v759
q0 183 165 289q136 87 328 87q191 0 327 -87zM910 1538l-182 273h-191l-182 -273h144l134 183l133 -183h144z" />
    <glyph glyph-name="ccircumflex" unicode="&#x109;" 
d="M604 1112q121 0 206 -86q86 -85 86 -206v-76h-152v96q0 58 -41 99t-99 41h-173q-57 0 -98 -41t-41 -99v-568q0 -58 41 -99t98 -41h173q58 0 99 41t41 99v96h152v-76q0 -121 -86 -206q-85 -86 -206 -86h-173q-120 0 -206 86q-85 85 -85 206v528q0 121 85 206q86 86 206 86
h173zM796 1174l-182 273h-191l-182 -273h144l134 183l133 -183h144z" />
    <glyph glyph-name="Cdotaccent" unicode="&#x10a;" horiz-adv-x="1265" 
d="M960 1404q165 -106 165 -289v-76h-152v86q0 100 -95 161q-99 63 -245 63q-137 0 -232 -54q-109 -62 -109 -170v-779q0 -108 109 -170q95 -54 232 -54q136 0 231 54q109 62 109 170v86h152v-76q0 -184 -165 -289q-136 -87 -327 -87q-192 0 -328 87q-165 105 -165 289v759
q0 183 165 289q136 87 328 87q191 0 327 -87zM564 1740h138v-138h-138v138z" />
    <glyph glyph-name="cdotaccent" unicode="&#x10b;" 
d="M604 1112q121 0 206 -86q86 -85 86 -206v-76h-152v96q0 58 -41 99t-99 41h-173q-57 0 -98 -41t-41 -99v-568q0 -58 41 -99t98 -41h173q58 0 99 41t41 99v96h152v-76q0 -121 -86 -206q-85 -86 -206 -86h-173q-120 0 -206 86q-85 85 -85 206v528q0 121 85 206q86 86 206 86
h173zM449 1376h138v-138h-138v138z" />
    <glyph glyph-name="Ccaron" unicode="&#x10c;" horiz-adv-x="1265" 
d="M960 1404q165 -106 165 -289v-76h-152v86q0 100 -95 161q-99 63 -245 63q-137 0 -232 -54q-109 -62 -109 -170v-779q0 -108 109 -170q95 -54 232 -54q136 0 231 54q109 62 109 170v86h152v-76q0 -184 -165 -289q-136 -87 -327 -87q-192 0 -328 87q-165 105 -165 289v759
q0 183 165 289q136 87 328 87q191 0 327 -87zM766 1811l-133 -183l-134 183h-144l182 -273h191l182 273h-144z" />
    <glyph glyph-name="ccaron" unicode="&#x10d;" 
d="M604 1112q121 0 206 -86q86 -85 86 -206v-76h-152v96q0 58 -41 99t-99 41h-173q-57 0 -98 -41t-41 -99v-568q0 -58 41 -99t98 -41h173q58 0 99 41t41 99v96h152v-76q0 -121 -86 -206q-85 -86 -206 -86h-173q-120 0 -206 86q-85 85 -85 206v528q0 121 85 206q86 86 206 86
h173zM652 1447l-133 -183l-134 183h-144l182 -273h191l182 273h-144z" />
    <glyph glyph-name="Dcaron" unicode="&#x10e;" horiz-adv-x="1246" 
d="M547 1476q394 0 503 -231q96 -204 96 -507q0 -302 -96 -506q-109 -232 -503 -232h-407v1476h407zM920 304q74 171 74 434q0 240 -65 411q-71 185 -382 185h-255v-1192h255q303 0 373 162zM777 1811l-133 -183l-134 183h-144l182 -273h191l182 273h-144z" />
    <glyph glyph-name="dcaron" unicode="&#x10f;" horiz-adv-x="1224" 
d="M604 1112q94 0 140 -86v450h152v-1476h-152v86q-46 -86 -140 -86h-173q-120 0 -206 86q-85 85 -85 206v528q0 121 85 206q86 86 206 86h173zM292 272q0 -58 41 -99t98 -41h173q58 0 99 41t41 99v568q0 58 -41 99t-99 41h-173q-57 0 -98 -41t-41 -99v-568zM1094 1313h-49
v162h162v-162q-13 -111 -96 -239h-75q52 132 58 239z" />
    <glyph glyph-name="Dcroat" unicode="&#x110;" horiz-adv-x="1353" 
d="M779 1473q179 0 307 -127q127 -127 127 -307v-605q0 -180 -127 -307q-128 -127 -307 -127h-434v660h-205v152h205v661h434zM1061 1039q0 117 -83 200q-82 82 -199 82h-282v-509h217v-152h-217v-508h282q117 0 199 82q83 83 83 200v605z" />
    <glyph glyph-name="dcroat" unicode="&#x111;" horiz-adv-x="1076" 
d="M292 272q0 -58 41 -99t98 -41h173q58 0 99 41t41 99v568q0 58 -41 99t-99 41h-173q-57 0 -98 -41t-41 -99v-568zM896 1219v-1219h-152v86q-46 -86 -140 -86h-173q-120 0 -206 86q-85 85 -85 206v528q0 121 85 206q86 86 206 86h173q94 0 140 -86v193h-229v132h229v125
h152v-125h180v-132h-180z" />
    <glyph glyph-name="Emacron" unicode="&#x112;" horiz-adv-x="993" 
d="M140 1476h813v-142h-661v-520h558v-142h-558v-530h661v-142h-813v1476zM832 1708v-122h-571v122h571z" />
    <glyph glyph-name="emacron" unicode="&#x113;" 
d="M604 1112q121 0 206 -86q86 -85 86 -206v-340h-604v-208q0 -58 41 -99t98 -41h173q58 0 99 41t41 119h152q0 -121 -86 -206q-85 -86 -206 -86h-173q-120 0 -206 86q-85 85 -85 206v528q0 121 85 206q86 86 206 86h173zM744 840q0 58 -41 99t-99 41h-173q-57 0 -98 -41
t-41 -99v-228h452v228zM804 1344v-122h-571v122h571z" />
    <glyph glyph-name="Ebreve" unicode="&#x114;" horiz-adv-x="993" 
d="M140 1476h813v-142h-661v-520h558v-142h-558v-530h661v-142h-813v1476zM690 1731q-143 -153 -287 0h-134q92 -183 277.5 -183t277.5 183h-134z" />
    <glyph glyph-name="ebreve" unicode="&#x115;" 
d="M604 1112q121 0 206 -86q86 -85 86 -206v-340h-604v-208q0 -58 41 -99t98 -41h173q58 0 99 41t41 119h152q0 -121 -86 -206q-85 -86 -206 -86h-173q-120 0 -206 86q-85 85 -85 206v528q0 121 85 206q86 86 206 86h173zM744 840q0 58 -41 99t-99 41h-173q-57 0 -98 -41
t-41 -99v-228h452v228zM662 1367q-143 -153 -287 0h-134q92 -183 277.5 -183t277.5 183h-134z" />
    <glyph glyph-name="Edotaccent" unicode="&#x116;" horiz-adv-x="993" 
d="M140 1476h813v-142h-661v-520h558v-142h-558v-530h661v-142h-813v1476zM478 1740h138v-138h-138v138z" />
    <glyph glyph-name="edotaccent" unicode="&#x117;" 
d="M604 1112q121 0 206 -86q86 -85 86 -206v-340h-604v-208q0 -58 41 -99t98 -41h173q58 0 99 41t41 119h152q0 -121 -86 -206q-85 -86 -206 -86h-173q-120 0 -206 86q-85 85 -85 206v528q0 121 85 206q86 86 206 86h173zM744 840q0 58 -41 99t-99 41h-173q-57 0 -98 -41
t-41 -99v-228h452v228zM449 1376h138v-138h-138v138z" />
    <glyph glyph-name="Eogonek" unicode="&#x118;" horiz-adv-x="993" 
d="M140 1476h813v-142h-661v-520h558v-142h-558v-530h661v-142h-813v1476zM895 -184l58 -55q-29 -42 -68 -67q-38 -25 -80 -28h-9q-39 0 -74 16q-101 47 -101 150q2 42 32 74q33 32 112 94h157q-119 -82 -154 -123q-8 -9 -14 -17q-12 -15 -12 -34q1 -23 12.5 -36.5
t40.5 -16.5q37 0 63 16z" />
    <glyph glyph-name="eogonek" unicode="&#x119;" 
d="M604 1112q121 0 206 -86q86 -85 86 -206v-340h-604v-208q0 -58 41 -99t98 -41h173q58 0 99 41t41 119h152q0 -121 -86 -206q-85 -86 -206 -86h-173q-120 0 -206 86q-85 85 -85 206v528q0 121 85 206q86 86 206 86h173zM744 840q0 58 -41 99t-99 41h-173q-57 0 -98 -41
t-41 -99v-228h452v228zM769 -111l58 -55q-29 -42 -68 -67q-38 -25 -80 -28h-9q-39 0 -74 16q-101 47 -101 150q2 42 32 74q33 32 112 94h157q-119 -82 -154 -123q-8 -9 -14 -17q-12 -15 -12 -34q1 -23 12.5 -36.5t40.5 -16.5q37 0 63 16z" />
    <glyph glyph-name="Ecaron" unicode="&#x11a;" horiz-adv-x="993" 
d="M140 1476h813v-142h-661v-520h558v-142h-558v-530h661v-142h-813v1476zM680 1811l-133 -183l-134 183h-144l182 -273h191l182 273h-144z" />
    <glyph glyph-name="ecaron" unicode="&#x11b;" 
d="M604 1112q121 0 206 -86q86 -85 86 -206v-340h-604v-208q0 -58 41 -99t98 -41h173q58 0 99 41t41 119h152q0 -121 -86 -206q-85 -86 -206 -86h-173q-120 0 -206 86q-85 85 -85 206v528q0 121 85 206q86 86 206 86h173zM744 840q0 58 -41 99t-99 41h-173q-57 0 -98 -41
t-41 -99v-228h452v228zM652 1447l-133 -183l-134 183h-144l182 -273h191l182 273h-144z" />
    <glyph glyph-name="Gcircumflex" unicode="&#x11c;" horiz-adv-x="1265" 
d="M960 1404q165 -106 165 -289v-76h-152v86q0 100 -95 161q-99 63 -245 63q-137 0 -232 -54q-109 -62 -109 -170v-779q0 -108 109 -170q95 -54 232 -54q136 0 231 54q109 62 109 170v318h-416v142h568v-450q0 -184 -165 -289q-136 -87 -327 -87q-192 0 -328 87
q-165 105 -165 289v759q0 183 165 289q136 87 328 87q191 0 327 -87zM910 1538l-182 273h-191l-182 -273h144l134 183l133 -183h144z" />
    <glyph glyph-name="gcircumflex" unicode="&#x11d;" 
d="M744 1111h152v-1184q0 -121 -86 -206q-85 -85 -206 -85h-173q-120 0 -206 85q-85 85 -85 206h152q0 -78 41 -119q41 -40 98 -40h173q58 0 99 40q41 41 41 99v199q-45 -85 -140 -85h-173q-120 0 -206 85q-85 85 -85 206v507q0 121 85 206q86 86 206 86h173q95 0 140 -86
v86zM604 153q58 0 99 40q41 41 41 99v547q0 58 -41 99t-99 41h-173q-57 0 -98 -41t-41 -99v-547q0 -58 41 -99q41 -40 98 -40h173zM796 1174l-182 273h-191l-182 -273h144l134 183l133 -183h144z" />
    <glyph glyph-name="Gbreve" unicode="&#x11e;" horiz-adv-x="1265" 
d="M960 1404q165 -106 165 -289v-76h-152v86q0 100 -95 161q-99 63 -245 63q-137 0 -232 -54q-109 -62 -109 -170v-779q0 -108 109 -170q95 -54 232 -54q136 0 231 54q109 62 109 170v318h-416v142h568v-450q0 -184 -165 -289q-136 -87 -327 -87q-192 0 -328 87
q-165 105 -165 289v759q0 183 165 289q136 87 328 87q191 0 327 -87zM776 1731q-143 -153 -287 0h-134q92 -183 277.5 -183t277.5 183h-134z" />
    <glyph glyph-name="gbreve" unicode="&#x11f;" 
d="M744 1111h152v-1184q0 -121 -86 -206q-85 -85 -206 -85h-173q-120 0 -206 85q-85 85 -85 206h152q0 -78 41 -119q41 -40 98 -40h173q58 0 99 40q41 41 41 99v199q-45 -85 -140 -85h-173q-120 0 -206 85q-85 85 -85 206v507q0 121 85 206q86 86 206 86h173q95 0 140 -86
v86zM604 153q58 0 99 40q41 41 41 99v547q0 58 -41 99t-99 41h-173q-57 0 -98 -41t-41 -99v-547q0 -58 41 -99q41 -40 98 -40h173zM662 1367q-143 -153 -287 0h-134q92 -183 277.5 -183t277.5 183h-134z" />
    <glyph glyph-name="Gdotaccent" unicode="&#x120;" horiz-adv-x="1265" 
d="M960 1404q165 -106 165 -289v-76h-152v86q0 100 -95 161q-99 63 -245 63q-137 0 -232 -54q-109 -62 -109 -170v-779q0 -108 109 -170q95 -54 232 -54q136 0 231 54q109 62 109 170v318h-416v142h568v-450q0 -184 -165 -289q-136 -87 -327 -87q-192 0 -328 87
q-165 105 -165 289v759q0 183 165 289q136 87 328 87q191 0 327 -87zM564 1740h138v-138h-138v138z" />
    <glyph glyph-name="gdotaccent" unicode="&#x121;" 
d="M744 1111h152v-1184q0 -121 -86 -206q-85 -85 -206 -85h-173q-120 0 -206 85q-85 85 -85 206h152q0 -78 41 -119q41 -40 98 -40h173q58 0 99 40q41 41 41 99v199q-45 -85 -140 -85h-173q-120 0 -206 85q-85 85 -85 206v507q0 121 85 206q86 86 206 86h173q95 0 140 -86
v86zM604 153q58 0 99 40q41 41 41 99v547q0 58 -41 99t-99 41h-173q-57 0 -98 -41t-41 -99v-547q0 -58 41 -99q41 -40 98 -40h173zM449 1376h138v-138h-138v138z" />
    <glyph glyph-name="uni0122" unicode="&#x122;" horiz-adv-x="1265" 
d="M960 1404q165 -106 165 -289v-76h-152v86q0 100 -95 161q-99 63 -245 63q-137 0 -232 -54q-109 -62 -109 -170v-779q0 -108 109 -170q95 -54 232 -54q136 0 231 54q109 62 109 170v318h-416v142h568v-450q0 -184 -165 -289q-136 -87 -327 -87q-192 0 -328 87
q-165 105 -165 289v759q0 183 165 289q136 87 328 87q191 0 327 -87zM484 -353h47q19 0 41 1q61 3 101 22q31 19 31 62v3q-2 21 -19 36t-47 21.5t-98 6.5v111q92 2 156 -14t102.5 -64t38.5 -104q-4 -78 -62.5 -132t-202.5 -64q-56 0 -114 7z" />
    <glyph glyph-name="uni0123" unicode="&#x123;" 
d="M744 1111h152v-1184q0 -121 -86 -206q-85 -85 -206 -85h-173q-120 0 -206 85q-85 85 -85 206h152q0 -78 41 -119q41 -40 98 -40h173q58 0 99 40q41 41 41 99v199q-45 -85 -140 -85h-173q-120 0 -206 85q-85 85 -85 206v507q0 121 85 206q86 86 206 86h173q95 0 140 -86
v86zM604 153q58 0 99 40q41 41 41 99v547q0 58 -41 99t-99 41h-173q-57 0 -98 -41t-41 -99v-547q0 -58 41 -99q41 -40 98 -40h173zM551 1361h49v-162h-162v162q13 111 96 239h75q-52 -132 -58 -239z" />
    <glyph glyph-name="Hcircumflex" unicode="&#x124;" horiz-adv-x="1208" 
d="M916 1476h152v-1476h-152v672h-624v-672h-152v1476h152v-662h624v662zM882 1538l-182 273h-191l-182 -273h144l134 183l133 -183h144z" />
    <glyph glyph-name="hcircumflex" unicode="&#x125;" 
d="M604 1112q121 0 206 -86q86 -85 86 -206v-820h-152v840q0 58 -41 99t-99 41h-173q-57 0 -98 -41t-41 -99v-840h-152v1476h152v-450q45 86 139 86h173zM796 1524l-182 273h-191l-182 -273h144l134 183l133 -183h144z" />
    <glyph glyph-name="Hbar" unicode="&#x126;" horiz-adv-x="1208" 
d="M916 1113h-624v-299h624v299zM916 1245v231h152v-231h115v-132h-115v-1113h-152v672h-624v-672h-152v1113h-118v132h118v231h152v-231h624z" />
    <glyph glyph-name="hbar" unicode="&#x127;" 
d="M292 1209v-183q45 86 139 86h173q121 0 206 -86q86 -85 86 -206v-820h-152v840q0 58 -41 99t-99 41h-173q-57 0 -98 -41t-41 -99v-840h-152v1209h-160v132h160v135h152v-135h299v-132h-299z" />
    <glyph glyph-name="Itilde" unicode="&#x128;" horiz-adv-x="472" 
d="M160 1476h152v-1476h-152v1476zM334 1551q-57 0 -95 24q-26 17 -42 37q-18 21 -29 29q-10 10 -31 11q-27 -2 -39 -15q-19 -20 -19 -58h-94q0 100 49 147q39 38 102 38h1q57 0 95 -32q20 -19 50 -43t52 -24h1q27 1 39 14q20 20 20 59h94q0 -102 -49 -149q-39 -38 -103 -38
h-2z" />
    <glyph glyph-name="itilde" unicode="&#x129;" horiz-adv-x="472" 
d="M160 1112h152v-1112h-152v1112zM334 1187q-57 0 -95 24q-26 17 -42 37q-18 21 -29 29q-10 10 -31 11q-27 -2 -39 -15q-19 -20 -19 -58h-94q0 100 49 147q39 38 102 38h1q57 0 95 -32q20 -19 50 -43t52 -24h1q27 1 39 14q20 20 20 59h94q0 -102 -49 -149q-39 -38 -103 -38
h-2z" />
    <glyph glyph-name="Imacron" unicode="&#x12a;" horiz-adv-x="472" 
d="M160 1476h152v-1476h-152v1476zM522 1708v-122h-571v122h571z" />
    <glyph glyph-name="imacron" unicode="&#x12b;" horiz-adv-x="472" 
d="M160 1112h152v-1112h-152v1112zM522 1344v-122h-571v122h571z" />
    <glyph glyph-name="Ibreve" unicode="&#x12c;" horiz-adv-x="472" 
d="M160 1476h152v-1476h-152v1476zM380 1731q-143 -153 -287 0h-134q92 -183 277.5 -183t277.5 183h-134z" />
    <glyph glyph-name="ibreve" unicode="&#x12d;" horiz-adv-x="472" 
d="M160 1112h152v-1112h-152v1112zM380 1367q-143 -153 -287 0h-134q92 -183 277.5 -183t277.5 183h-134z" />
    <glyph glyph-name="Iogonek" unicode="&#x12e;" horiz-adv-x="472" 
d="M160 1476h152v-1476h-152v1476zM287 -184l58 -55q-29 -42 -68 -67q-38 -25 -80 -28h-9q-39 0 -74 16q-101 47 -101 150q2 42 32 74q33 32 112 94h157q-119 -82 -154 -123q-8 -9 -14 -17q-12 -15 -12 -34q1 -23 12.5 -36.5t40.5 -16.5q37 0 63 16z" />
    <glyph glyph-name="iogonek" unicode="&#x12f;" horiz-adv-x="472" 
d="M160 1112h152v-1112h-152v1112zM160 1475h152v-152h-152v152zM289 -184l58 -55q-29 -42 -68 -67q-38 -25 -80 -28h-9q-39 0 -74 16q-101 47 -101 150q2 42 32 74q33 32 112 94h157q-119 -82 -154 -123q-8 -9 -14 -17q-12 -15 -12 -34q1 -23 12.5 -36.5t40.5 -16.5
q37 0 63 16z" />
    <glyph glyph-name="Idotaccent" unicode="&#x130;" horiz-adv-x="472" 
d="M160 1476h152v-1476h-152v1476zM167 1740h138v-138h-138v138z" />
    <glyph glyph-name="IJ" unicode="&#x132;" horiz-adv-x="1387" 
d="M160 1476h152v-1476h-152v1476zM615 72q-118 101 -118 269v76h152v-86q0 -102 70 -159q61 -50 153 -50q91 0 153 50q70 57 70 159v1142h152v-1132q0 -168 -118 -269q-106 -92 -257 -92t-257 92z" />
    <glyph glyph-name="ij" unicode="&#x133;" horiz-adv-x="989" 
d="M160 1112h152v-1112h-152v1112zM160 1475h152v-152h-152v152zM697 1113h152v-1184q0 -121 -85 -206t-206 -85h-76v132h76q58 0 99 40q40 41 40 99v1204zM697 1475h152v-152h-152v152z" />
    <glyph glyph-name="Jcircumflex" unicode="&#x134;" horiz-adv-x="915" 
d="M143 75q-118 101 -118 269v76h152v-86q0 -102 70 -159q61 -50 153 -50q91 0 153 50q70 57 70 159v1142h152v-1132q0 -168 -118 -269q-106 -92 -257 -92t-257 92zM962 1538l-182 273h-191l-182 -273h144l134 183l133 -183h144z" />
    <glyph glyph-name="jcircumflex" unicode="&#x135;" horiz-adv-x="449" 
d="M508 1174l-182 273h-191l-182 -273h144l134 183l133 -183h144zM148 1113h152v-1184q0 -121 -85 -206t-206 -85h-76v132h76q58 0 99 40q40 41 40 99v1204z" />
    <glyph glyph-name="uni0136" unicode="&#x136;" horiz-adv-x="1082" 
d="M1059 1476l-492 -613l505 -863h-176l-431 737l-173 -214v-522h-152v1476h152v-712l571 711h196zM388 -353h47q19 0 41 1q61 3 101 22q31 19 31 62v3q-2 21 -19 36t-47 21.5t-98 6.5v111q92 2 156 -14t102.5 -64t38.5 -104q-4 -78 -62.5 -132t-202.5 -64q-56 0 -114 7z
" />
    <glyph glyph-name="uni0137" unicode="&#x137;" horiz-adv-x="958" 
d="M919 1112l-377 -417l412 -695h-177l-347 580l-108 -117v-463h-152v1476h152v-801l398 437h199zM346 -353h47q19 0 41 1q61 3 101 22q31 19 31 62v3q-2 21 -19 36t-47 21.5t-98 6.5v111q92 2 156 -14t102.5 -64t38.5 -104q-4 -78 -62.5 -132t-202.5 -64q-56 0 -114 7z" />
    <glyph glyph-name="kgreenlandic" unicode="&#x138;" horiz-adv-x="958" 
d="M919 1112l-377 -417l412 -695h-177l-347 580l-108 -117v-463h-152v1112h152v-437l398 437h199z" />
    <glyph glyph-name="Lacute" unicode="&#x139;" horiz-adv-x="1012" 
d="M292 142h680v-142h-832v1476h152v-1334zM606 1815h181l-201 -270h-145z" />
    <glyph glyph-name="lacute" unicode="&#x13a;" horiz-adv-x="472" 
d="M160 1476h152v-1476h-152v1476zM288 1797h181l-201 -270h-145z" />
    <glyph glyph-name="uni013B" unicode="&#x13b;" horiz-adv-x="1012" 
d="M292 142h680v-142h-832v1476h152v-1334zM411 -353h47q19 0 41 1q61 3 101 22q31 19 31 62v3q-2 21 -19 36t-47 21.5t-98 6.5v111q92 2 156 -14t102.5 -64t38.5 -104q-4 -78 -62.5 -132t-202.5 -64q-56 0 -114 7z" />
    <glyph glyph-name="uni013C" unicode="&#x13c;" horiz-adv-x="472" 
d="M160 1476h152v-1476h-152v1476zM86 -353h47q19 0 41 1q61 3 101 22q31 19 31 62v3q-2 21 -19 36t-47 21.5t-98 6.5v111q92 2 156 -14t102.5 -64t38.5 -104q-4 -78 -62.5 -132t-202.5 -64q-56 0 -114 7z" />
    <glyph glyph-name="Lcaron" unicode="&#x13d;" horiz-adv-x="1012" 
d="M292 142h680v-142h-832v1476h152v-1334zM789 1313h-49v162h162v-162q-13 -111 -96 -239h-75q52 132 58 239z" />
    <glyph glyph-name="lcaron" unicode="&#x13e;" horiz-adv-x="618" 
d="M160 1476h152v-1476h-152v1476zM489 1313h-49v162h162v-162q-13 -111 -96 -239h-75q52 132 58 239z" />
    <glyph glyph-name="Ldot" unicode="&#x13f;" horiz-adv-x="1012" 
d="M292 142h680v-142h-832v1476h152v-1334zM792.996 806.696h137.696v-137.696h-137.696v137.696z" />
    <glyph glyph-name="ldot" unicode="&#x140;" horiz-adv-x="610" 
d="M160 1476h152v-1476h-152v1476zM461.996 806.696h137.696v-137.696h-137.696v137.696z" />
    <glyph glyph-name="Lslash" unicode="&#x141;" horiz-adv-x="997" 
d="M292 142h680v-142h-832v1476h152v-1334zM502 1012v-152l-551 -349v152z" />
    <glyph glyph-name="lslash" unicode="&#x142;" horiz-adv-x="464" 
d="M160 1476h152v-1476h-152v1476zM502 1012v-152l-551 -349v152z" />
    <glyph glyph-name="Nacute" unicode="&#x143;" horiz-adv-x="1177" 
d="M262 1476l623 -1128v1130h152v-1478h-119l-626 1132v-1130h-152v1474h122zM638 1815h181l-201 -270h-145z" />
    <glyph glyph-name="nacute" unicode="&#x144;" 
d="M604 1112q121 0 206 -86q86 -85 86 -206v-820h-152v840q0 58 -41 99t-99 41h-173q-57 0 -98 -41t-41 -99v-840h-152v1112h152v-86q45 86 139 86h173zM568 1451h181l-201 -270h-145z" />
    <glyph glyph-name="uni0145" unicode="&#x145;" horiz-adv-x="1177" 
d="M262 1476l623 -1128v1130h152v-1478h-119l-626 1132v-1130h-152v1474h122zM414 -353h47q19 0 41 1q61 3 101 22q31 19 31 62v3q-2 21 -19 36t-47 21.5t-98 6.5v111q92 2 156 -14t102.5 -64t38.5 -104q-4 -78 -62.5 -132t-202.5 -64q-56 0 -114 7z" />
    <glyph glyph-name="uni0146" unicode="&#x146;" 
d="M604 1112q121 0 206 -86q86 -85 86 -206v-820h-152v840q0 58 -41 99t-99 41h-173q-57 0 -98 -41t-41 -99v-840h-152v1112h152v-86q45 86 139 86h173zM337 -353h47q19 0 41 1q61 3 101 22q31 19 31 62v3q-2 21 -19 36t-47 21.5t-98 6.5v111q92 2 156 -14t102.5 -64
t38.5 -104q-4 -78 -62.5 -132t-202.5 -64q-56 0 -114 7z" />
    <glyph glyph-name="Ncaron" unicode="&#x147;" horiz-adv-x="1177" 
d="M262 1476l623 -1128v1130h152v-1478h-119l-626 1132v-1130h-152v1474h122zM722 1811l-133 -183l-134 183h-144l182 -273h191l182 273h-144z" />
    <glyph glyph-name="ncaron" unicode="&#x148;" 
d="M604 1112q121 0 206 -86q86 -85 86 -206v-820h-152v840q0 58 -41 99t-99 41h-173q-57 0 -98 -41t-41 -99v-840h-152v1112h152v-86q45 86 139 86h173zM652 1447l-133 -183l-134 183h-144l182 -273h191l182 273h-144z" />
    <glyph glyph-name="napostrophe" unicode="&#x149;" 
d="M634 1112q121 0 206 -86q86 -85 86 -206v-820h-152v840q0 58 -41 99t-99 41h-173q-57 0 -98 -41t-41 -99v-840h-152v1112h152v-86q45 86 139 86h173zM62 1313h-49v162h162v-162q-13 -111 -96 -239h-75q52 132 58 239z" />
    <glyph glyph-name="Eng" unicode="&#x14a;" horiz-adv-x="1177" 
d="M262 1476l623 -1168v1170h152v-1478h-162l-583 1132v-1130h-152v1474h122zM924 -162h-49v162h162v-162q-13 -111 -96 -239h-75q52 132 58 239z" />
    <glyph glyph-name="eng" unicode="&#x14b;" 
d="M604 1112q121 0 206 -86q86 -85 86 -206v-820h-152v840q0 58 -41 99t-99 41h-173q-57 0 -98 -41t-41 -99v-840h-152v1112h152v-86q45 86 139 86h173zM783 -92h-39v92h152v-92q-13 -111 -96 -239h-75q52 132 58 239z" />
    <glyph glyph-name="Omacron" unicode="&#x14c;" horiz-adv-x="1265" 
d="M960 1404q165 -106 165 -289v-759q0 -184 -165 -289q-136 -87 -327 -87q-192 0 -328 87q-165 105 -165 289v759q0 183 165 289q136 87 328 87q191 0 327 -87zM973 1125q0 108 -109 170q-95 54 -231 54q-137 0 -232 -54q-109 -62 -109 -170v-779q0 -108 109 -170
q95 -54 232 -54q136 0 231 54q109 62 109 170v779zM918 1708v-122h-571v122h571z" />
    <glyph glyph-name="omacron" unicode="&#x14d;" 
d="M604 1112q121 0 206 -86q86 -85 86 -206v-528q0 -121 -86 -206q-85 -86 -206 -86h-173q-120 0 -206 86q-85 85 -85 206v528q0 121 85 206q86 86 206 86h173zM744 840q0 58 -41 99t-99 41h-173q-57 0 -98 -41t-41 -99v-568q0 -58 41 -99t98 -41h173q58 0 99 41t41 99v568z
M804 1344v-122h-571v122h571z" />
    <glyph glyph-name="Obreve" unicode="&#x14e;" horiz-adv-x="1265" 
d="M960 1404q165 -106 165 -289v-759q0 -184 -165 -289q-136 -87 -327 -87q-192 0 -328 87q-165 105 -165 289v759q0 183 165 289q136 87 328 87q191 0 327 -87zM973 1125q0 108 -109 170q-95 54 -231 54q-137 0 -232 -54q-109 -62 -109 -170v-779q0 -108 109 -170
q95 -54 232 -54q136 0 231 54q109 62 109 170v779zM776 1731q-143 -153 -287 0h-134q92 -183 277.5 -183t277.5 183h-134z" />
    <glyph glyph-name="obreve" unicode="&#x14f;" 
d="M604 1112q121 0 206 -86q86 -85 86 -206v-528q0 -121 -86 -206q-85 -86 -206 -86h-173q-120 0 -206 86q-85 85 -85 206v528q0 121 85 206q86 86 206 86h173zM744 840q0 58 -41 99t-99 41h-173q-57 0 -98 -41t-41 -99v-568q0 -58 41 -99t98 -41h173q58 0 99 41t41 99v568z
M662 1367q-143 -153 -287 0h-134q92 -183 277.5 -183t277.5 183h-134z" />
    <glyph glyph-name="Ohungarumlaut" unicode="&#x150;" horiz-adv-x="1265" 
d="M960 1404q165 -106 165 -289v-759q0 -184 -165 -289q-136 -87 -327 -87q-192 0 -328 87q-165 105 -165 289v759q0 183 165 289q136 87 328 87q191 0 327 -87zM973 1125q0 108 -109 170q-95 54 -231 54q-137 0 -232 -54q-109 -62 -109 -170v-779q0 -108 109 -170
q95 -54 232 -54q136 0 231 54q109 62 109 170v779zM457 1815h181l-201 -270h-145zM793 1815h181l-201 -270h-145z" />
    <glyph glyph-name="ohungarumlaut" unicode="&#x151;" 
d="M604 1112q121 0 206 -86q86 -85 86 -206v-528q0 -121 -86 -206q-85 -86 -206 -86h-173q-120 0 -206 86q-85 85 -85 206v528q0 121 85 206q86 86 206 86h173zM744 840q0 58 -41 99t-99 41h-173q-57 0 -98 -41t-41 -99v-568q0 -58 41 -99t98 -41h173q58 0 99 41t41 99v568z
M342 1451h181l-201 -270h-145zM678 1451h181l-201 -270h-145z" />
    <glyph glyph-name="OE" unicode="&#x152;" horiz-adv-x="1822" 
d="M973 76q-6 -5 -13 -9q-136 -87 -327 -87q-192 0 -328 87q-165 105 -165 289v759q0 183 165 289q136 87 328 87q191 0 327 -87q7 -4 13 -9v81h813v-142h-661v-520h558v-142h-558v-530h661v-142h-813v76zM973 1125q0 108 -109 170q-95 54 -231 54q-137 0 -232 -54
q-109 -62 -109 -170v-779q0 -108 109 -170q95 -54 232 -54q136 0 231 54q109 62 109 170v779z" />
    <glyph glyph-name="oe" unicode="&#x153;" horiz-adv-x="1641" 
d="M744 840q0 58 -41 99t-99 41h-173q-57 0 -98 -41t-41 -99v-568q0 -58 41 -99t98 -41h173q58 0 99 41t41 99v568zM1349 840q0 58 -41 99t-99 41h-173q-57 0 -98 -41t-41 -99v-228h452v228zM820 96l-10 -10q-85 -86 -206 -86h-173q-120 0 -206 86q-85 85 -85 206v528
q0 121 85 206q86 86 206 86h173q121 0 206 -86l10 -10l10 10q86 86 206 86h173q121 0 206 -86q86 -85 86 -206v-340h-604v-208q0 -58 41 -99t98 -41h173q58 0 99 41t41 119h152q0 -121 -86 -206q-85 -86 -206 -86h-173q-120 0 -206 86z" />
    <glyph glyph-name="Racute" unicode="&#x154;" horiz-adv-x="1159" 
d="M676 756q100 0 158 80q59 80 59 209q0 122 -53 201q-60 89 -164 89h-384v-579h384zM988 0q-203 383 -252 455q-110 159 -199 159h-245v-613h-152v1476h536q172 0 275 -135q94 -123 94 -297q0 -169 -88 -289q-66 -90 -167 -124q87 -97 369 -632h-171zM699 1815h181
l-201 -270h-145z" />
    <glyph glyph-name="racute" unicode="&#x155;" horiz-adv-x="636" 
d="M292 995q77 117 254 117h76v-152h-76q-139 0 -196 -65q-58 -65 -58 -222v-673h-152v1112h152v-117zM431 1451h181l-201 -270h-145z" />
    <glyph glyph-name="uni0156" unicode="&#x156;" horiz-adv-x="1159" 
d="M676 756q100 0 158 80q59 80 59 209q0 122 -53 201q-60 89 -164 89h-384v-579h384zM988 0q-203 383 -252 455q-110 159 -199 159h-245v-613h-152v1476h536q172 0 275 -135q94 -123 94 -297q0 -169 -88 -289q-66 -90 -167 -124q87 -97 369 -632h-171zM444 -353h47
q19 0 41 1q61 3 101 22q31 19 31 62v3q-2 21 -19 36t-47 21.5t-98 6.5v111q92 2 156 -14t102.5 -64t38.5 -104q-4 -78 -62.5 -132t-202.5 -64q-56 0 -114 7z" />
    <glyph glyph-name="uni0157" unicode="&#x157;" horiz-adv-x="636" 
d="M292 995q77 117 254 117h76v-152h-76q-139 0 -196 -65q-58 -65 -58 -222v-673h-152v1112h152v-117zM179 -353h47q19 0 41 1q61 3 101 22q31 19 31 62v3q-2 21 -19 36t-47 21.5t-98 6.5v111q92 2 156 -14t102.5 -64t38.5 -104q-4 -78 -62.5 -132t-202.5 -64q-56 0 -114 7z
" />
    <glyph glyph-name="Rcaron" unicode="&#x158;" horiz-adv-x="1159" 
d="M676 756q100 0 158 80q59 80 59 209q0 122 -53 201q-60 89 -164 89h-384v-579h384zM988 0q-203 383 -252 455q-110 159 -199 159h-245v-613h-152v1476h536q172 0 275 -135q94 -123 94 -297q0 -169 -88 -289q-66 -90 -167 -124q87 -97 369 -632h-171zM783 1811l-133 -183
l-134 183h-144l182 -273h191l182 273h-144z" />
    <glyph glyph-name="rcaron" unicode="&#x159;" horiz-adv-x="636" 
d="M292 995q77 117 254 117h76v-152h-76q-139 0 -196 -65q-58 -65 -58 -222v-673h-152v1112h152v-117zM515 1447l-133 -183l-134 183h-144l182 -273h191l182 273h-144z" />
    <glyph glyph-name="Sacute" unicode="&#x15a;" horiz-adv-x="1180" 
d="M332 910q-77 58 -77 184q4 124 103 189q85 56 215 56q114 1 208 -42q96 -44 120 -110l143 52q-43 120 -184 189q-129 64 -287 64q-194 0 -323 -97q-143 -108 -148 -297q0 -386 471 -406q198 -8 267 -45q109 -58 107 -232q-2 -141 -112 -217q-96 -65 -244 -65
q-134 0 -238 54q-113 58 -124 151l-152 -17q18 -156 177 -252q146 -89 337 -89q213 0 353 109q154 119 156 325q3 250 -145 346q-112 73 -381 85q-167 8 -242 65zM638 1815h181l-201 -270h-145z" />
    <glyph glyph-name="sacute" unicode="&#x15b;" horiz-adv-x="987" 
d="M593 642q137 0 219 -102q75 -82 75 -214q0 -131 -75 -223q-82 -103 -219 -103h-202q-120 0 -206 86q-85 85 -85 206h152q0 -78 41 -119t98 -41h202q66 0 103 49q39 50 39 145q0 74 -29 122q-38 62 -113 62h-173q-136 0 -217 96q-74 77 -74 200q0 121 71 207q83 99 220 99
h144q102 0 183 -65q80 -65 102 -164l-149 -33q-10 68 -49 99q-38 31 -87 31h-144q-66 0 -103 -45q-36 -43 -36 -129q0 -66 28 -108q38 -56 111 -56h173zM543 1451h181l-201 -270h-145z" />
    <glyph glyph-name="Scircumflex" unicode="&#x15c;" horiz-adv-x="1180" 
d="M332 910q-77 58 -77 184q4 124 103 189q85 56 215 56q114 1 208 -42q96 -44 120 -110l143 52q-43 120 -184 189q-129 64 -287 64q-194 0 -323 -97q-143 -108 -148 -297q0 -386 471 -406q198 -8 267 -45q109 -58 107 -232q-2 -141 -112 -217q-96 -65 -244 -65
q-134 0 -238 54q-113 58 -124 151l-152 -17q18 -156 177 -252q146 -89 337 -89q213 0 353 109q154 119 156 325q3 250 -145 346q-112 73 -381 85q-167 8 -242 65zM866 1538l-182 273h-191l-182 -273h144l134 183l133 -183h144z" />
    <glyph glyph-name="scircumflex" unicode="&#x15d;" horiz-adv-x="987" 
d="M593 642q137 0 219 -102q75 -82 75 -214q0 -131 -75 -223q-82 -103 -219 -103h-202q-120 0 -206 86q-85 85 -85 206h152q0 -78 41 -119t98 -41h202q66 0 103 49q39 50 39 145q0 74 -29 122q-38 62 -113 62h-173q-136 0 -217 96q-74 77 -74 200q0 121 71 207q83 99 220 99
h144q102 0 183 -65q80 -65 102 -164l-149 -33q-10 68 -49 99q-38 31 -87 31h-144q-66 0 -103 -45q-36 -43 -36 -129q0 -66 28 -108q38 -56 111 -56h173zM771 1174l-182 273h-191l-182 -273h144l134 183l133 -183h144z" />
    <glyph glyph-name="Scedilla" unicode="&#x15e;" horiz-adv-x="1180" 
d="M332 910q-77 58 -77 184q4 124 103 189q85 56 215 56q114 1 208 -42q96 -44 120 -110l143 52q-43 120 -184 189q-129 64 -287 64q-194 0 -323 -97q-143 -108 -148 -297q0 -386 471 -406q198 -8 267 -45q109 -58 107 -232q-2 -141 -112 -217q-96 -65 -244 -65
q-134 0 -238 54q-113 58 -124 151l-152 -17q18 -156 177 -252q146 -89 337 -89q213 0 353 109q154 119 156 325q3 250 -145 346q-112 73 -381 85q-167 8 -242 65zM389 -474q68 -8 126 -8q148 11 209.5 66.5t64.5 134.5q0 57 -40 106.5t-112 64.5l30 110h-139l-56 -205
q83 -5 109.5 -11t45.5 -22t22 -36v-3q0 -36 -37 -58q-39 -24 -91 -27l-49 -1h-57z" />
    <glyph glyph-name="scedilla" unicode="&#x15f;" horiz-adv-x="987" 
d="M593 642q137 0 219 -102q75 -82 75 -214q0 -131 -75 -223q-82 -103 -219 -103h-202q-120 0 -206 86q-85 85 -85 206h152q0 -78 41 -119t98 -41h202q66 0 103 49q39 50 39 145q0 74 -29 122q-38 62 -113 62h-173q-136 0 -217 96q-74 77 -74 200q0 121 71 207q83 99 220 99
h144q102 0 183 -65q80 -65 102 -164l-149 -33q-10 68 -49 99q-38 31 -87 31h-144q-66 0 -103 -45q-36 -43 -36 -129q0 -66 28 -108q38 -56 111 -56h173zM294 -474q68 -8 126 -8q148 11 209.5 66.5t64.5 134.5q0 57 -40 106.5t-112 64.5l30 110h-139l-56 -205
q83 -5 109.5 -11t45.5 -22t22 -36v-3q0 -36 -37 -58q-39 -24 -91 -27l-49 -1h-57z" />
    <glyph glyph-name="Scaron" unicode="&#x160;" horiz-adv-x="1180" 
d="M332 910q-77 58 -77 184q4 124 103 189q85 56 215 56q114 1 208 -42q96 -44 120 -110l143 52q-43 120 -184 189q-129 64 -287 64q-194 0 -323 -97q-143 -108 -148 -297q0 -386 471 -406q198 -8 267 -45q109 -58 107 -232q-2 -141 -112 -217q-96 -65 -244 -65
q-134 0 -238 54q-113 58 -124 151l-152 -17q18 -156 177 -252q146 -89 337 -89q213 0 353 109q154 119 156 325q3 250 -145 346q-112 73 -381 85q-167 8 -242 65zM722 1811l-133 -183l-134 183h-144l182 -273h191l182 273h-144z" />
    <glyph glyph-name="scaron" unicode="&#x161;" horiz-adv-x="987" 
d="M593 642q137 0 219 -102q75 -82 75 -214q0 -131 -75 -223q-82 -103 -219 -103h-202q-120 0 -206 86q-85 85 -85 206h152q0 -78 41 -119t98 -41h202q66 0 103 49q39 50 39 145q0 74 -29 122q-38 62 -113 62h-173q-136 0 -217 96q-74 77 -74 200q0 121 71 207q83 99 220 99
h144q102 0 183 -65q80 -65 102 -164l-149 -33q-10 68 -49 99q-38 31 -87 31h-144q-66 0 -103 -45q-36 -43 -36 -129q0 -66 28 -108q38 -56 111 -56h173zM627 1447l-133 -183l-134 183h-144l182 -273h191l182 273h-144z" />
    <glyph glyph-name="uni0162" unicode="&#x162;" horiz-adv-x="969" 
d="M929 1476v-142h-368v-1334h-152v1334h-369v142h889zM277 -474q68 -8 126 -8q148 11 209.5 66.5t64.5 134.5q0 57 -40 106.5t-112 64.5l30 110h-139l-56 -205q83 -5 109.5 -11t45.5 -22t22 -36v-3q0 -36 -37 -58q-39 -24 -91 -27l-49 -1h-57z" />
    <glyph glyph-name="uni0163" unicode="&#x163;" horiz-adv-x="681" 
d="M398 1102h203v-132h-203v-760q0 -54 17 -61t65 -7h91v-142h-157q-110 0 -149 82q-19 39 -19 128v760h-166v132h166v374h152v-374zM275 -474q68 -8 126 -8q148 11 209.5 66.5t64.5 134.5q0 57 -40 106.5t-112 64.5l30 110h-139l-56 -205q83 -5 109.5 -11t45.5 -22t22 -36
v-3q0 -36 -37 -58q-39 -24 -91 -27l-49 -1h-57z" />
    <glyph glyph-name="Tcaron" unicode="&#x164;" horiz-adv-x="969" 
d="M929 1476v-142h-368v-1334h-152v1334h-369v142h889zM618 1811l-133 -183l-134 183h-144l182 -273h191l182 273h-144z" />
    <glyph glyph-name="tcaron" unicode="&#x165;" horiz-adv-x="863" 
d="M398 1102h203v-132h-203v-760q0 -54 17 -61t65 -7h91v-142h-157q-110 0 -149 82q-19 39 -19 128v760h-166v132h166v374h152v-374zM721 1313h-49v162h162v-162q-13 -111 -96 -239h-75q52 132 58 239z" />
    <glyph glyph-name="Tbar" unicode="&#x166;" horiz-adv-x="973" 
d="M929 1476v-142h-368v-1334h-152v1334h-369v142h889zM910 814v-132h-851v132h851z" />
    <glyph glyph-name="tbar" unicode="&#x167;" horiz-adv-x="651" 
d="M398 1102h203v-132h-203v-760q0 -54 17 -61t65 -7h91v-142h-157q-110 0 -149 82q-19 39 -19 128v760h-166v132h166v374h152v-374zM596 666v-132h-511v132h511z" />
    <glyph glyph-name="Utilde" unicode="&#x168;" horiz-adv-x="1204" 
d="M912 1476h152v-1122q0 -176 -145 -281q-131 -95 -317 -95q-180 0 -309 88q-153 106 -153 288v1122h152v-1132q0 -108 99 -170q87 -54 211 -54t211 54q99 62 99 170v1132zM700 1551q-57 0 -95 24q-26 17 -42 37q-18 21 -29 29q-10 10 -31 11q-27 -2 -39 -15
q-19 -20 -19 -58h-94q0 100 49 147q39 38 102 38h1q57 0 95 -32q20 -19 50 -43t52 -24h1q27 1 39 14q20 20 20 59h94q0 -102 -49 -149q-39 -38 -103 -38h-2z" />
    <glyph glyph-name="utilde" unicode="&#x169;" 
d="M744 1112h152v-820q0 -121 -86 -206q-85 -86 -206 -86h-173q-120 0 -206 86q-85 85 -85 206v820h152v-820q0 -58 41 -99t98 -41h173q58 0 99 41t41 99v820zM616 1187q-57 0 -95 24q-26 17 -42 37q-18 21 -29 29q-10 10 -31 11q-27 -2 -39 -15q-19 -20 -19 -58h-94
q0 100 49 147q39 38 102 38h1q57 0 95 -32q20 -19 50 -43t52 -24h1q27 1 39 14q20 20 20 59h94q0 -102 -49 -149q-39 -38 -103 -38h-2z" />
    <glyph glyph-name="Umacron" unicode="&#x16a;" horiz-adv-x="1204" 
d="M912 1476h152v-1122q0 -176 -145 -281q-131 -95 -317 -95q-180 0 -309 88q-153 106 -153 288v1122h152v-1132q0 -108 99 -170q87 -54 211 -54t211 54q99 62 99 170v1132zM888 1708v-122h-571v122h571z" />
    <glyph glyph-name="umacron" unicode="&#x16b;" 
d="M744 1112h152v-820q0 -121 -86 -206q-85 -86 -206 -86h-173q-120 0 -206 86q-85 85 -85 206v820h152v-820q0 -58 41 -99t98 -41h173q58 0 99 41t41 99v820zM804 1344v-122h-571v122h571z" />
    <glyph glyph-name="Ubreve" unicode="&#x16c;" horiz-adv-x="1204" 
d="M912 1476h152v-1122q0 -176 -145 -281q-131 -95 -317 -95q-180 0 -309 88q-153 106 -153 288v1122h152v-1132q0 -108 99 -170q87 -54 211 -54t211 54q99 62 99 170v1132zM746 1731q-143 -153 -287 0h-134q92 -183 277.5 -183t277.5 183h-134z" />
    <glyph glyph-name="ubreve" unicode="&#x16d;" 
d="M744 1112h152v-820q0 -121 -86 -206q-85 -86 -206 -86h-173q-120 0 -206 86q-85 85 -85 206v820h152v-820q0 -58 41 -99t98 -41h173q58 0 99 41t41 99v820zM662 1367q-143 -153 -287 0h-134q92 -183 277.5 -183t277.5 183h-134z" />
    <glyph glyph-name="Uring" unicode="&#x16e;" horiz-adv-x="1204" 
d="M912 1476h152v-1122q0 -176 -145 -281q-131 -95 -317 -95q-180 0 -309 88q-153 106 -153 288v1122h152v-1132q0 -108 99 -170q87 -54 211 -54t211 54q99 62 99 170v1132zM603 1833q-67 0 -115 -48t-48 -114q0 -67 48 -115t115 -48q66 0 114 48t48 115q0 66 -48 114
t-114 48zM649 1717q19 -19 19 -46q0 -28 -19 -47t-46 -19q-28 0 -47 19t-19 47q0 27 19 46t47 19q27 0 46 -19z" />
    <glyph glyph-name="uring" unicode="&#x16f;" 
d="M744 1112h152v-820q0 -121 -86 -206q-85 -86 -206 -86h-173q-120 0 -206 86q-85 85 -85 206v820h152v-820q0 -58 41 -99t98 -41h173q58 0 99 41t41 99v820zM519 1469q-67 0 -115 -48t-48 -114q0 -67 48 -115t115 -48q66 0 114 48t48 115q0 66 -48 114t-114 48zM565 1353
q19 -19 19 -46q0 -28 -19 -47t-46 -19q-28 0 -47 19t-19 47q0 27 19 46t47 19q27 0 46 -19z" />
    <glyph glyph-name="Uhungarumlaut" unicode="&#x170;" horiz-adv-x="1204" 
d="M912 1476h152v-1122q0 -176 -145 -281q-131 -95 -317 -95q-180 0 -309 88q-153 106 -153 288v1122h152v-1132q0 -108 99 -170q87 -54 211 -54t211 54q99 62 99 170v1132zM426 1815h181l-201 -270h-145zM762 1815h181l-201 -270h-145z" />
    <glyph glyph-name="uhungarumlaut" unicode="&#x171;" 
d="M744 1112h152v-820q0 -121 -86 -206q-85 -86 -206 -86h-173q-120 0 -206 86q-85 85 -85 206v820h152v-820q0 -58 41 -99t98 -41h173q58 0 99 41t41 99v820zM342 1451h181l-201 -270h-145zM678 1451h181l-201 -270h-145z" />
    <glyph glyph-name="Uogonek" unicode="&#x172;" horiz-adv-x="1204" 
d="M912 1476h152v-1122q0 -176 -145 -281q-131 -95 -317 -95q-180 0 -309 88q-153 106 -153 288v1122h152v-1132q0 -108 99 -170q87 -54 211 -54t211 54q99 62 99 170v1132zM782 -169l58 -55q-29 -42 -68 -67q-38 -25 -80 -28h-9q-39 0 -74 16q-101 47 -101 150q2 42 32 74
q33 32 112 94h157q-119 -82 -154 -123q-8 -9 -14 -17q-12 -15 -12 -34q1 -23 12.5 -36.5t40.5 -16.5q37 0 63 16z" />
    <glyph glyph-name="uogonek" unicode="&#x173;" 
d="M744 1112h152v-820q0 -121 -86 -206q-85 -86 -206 -86h-173q-120 0 -206 86q-85 85 -85 206v820h152v-820q0 -58 41 -99t98 -41h173q58 0 99 41t41 99v820zM706 -153l58 -55q-29 -42 -68 -67q-38 -25 -80 -28h-9q-39 0 -74 16q-101 47 -101 150q2 42 32 74q33 32 112 94
h157q-119 -82 -154 -123q-8 -9 -14 -17q-12 -15 -12 -34q1 -23 12.5 -36.5t40.5 -16.5q37 0 63 16z" />
    <glyph glyph-name="Wcircumflex" unicode="&#x174;" horiz-adv-x="1741" 
d="M1213 0l-343 1184l-342 -1184h-88l-430 1476h158l316 -1103l316 1103h140l317 -1103l316 1103h158l-430 -1476h-88zM1148 1538l-182 273h-191l-182 -273h144l134 183l133 -183h144z" />
    <glyph glyph-name="wcircumflex" unicode="&#x175;" horiz-adv-x="1358" 
d="M936 0l-257 742l-257 -742h-95l-317 1112h158l216 -758l262 758h66l262 -758l216 758h158l-317 -1112h-95zM957 1174l-182 273h-191l-182 -273h144l134 183l133 -183h144z" />
    <glyph glyph-name="Ycircumflex" unicode="&#x176;" horiz-adv-x="1038" 
d="M1028 1476l-434 -867v-609h-152v609l-432 867h170l338 -699l340 699h170zM797 1538l-182 273h-191l-182 -273h144l134 183l133 -183h144z" />
    <glyph glyph-name="ycircumflex" unicode="&#x177;" horiz-adv-x="848" 
d="M838 1112l-300 -957l-90 -286q-36 -115 -136 -173q-71 -32 -142 -32q-45 0 -88 14l-72 23l46 145l72 -23q22 -7 43 -7q32 0 63 16q52 27 69 82l60 189l-317 1009h159l237 -754l237 754h159zM702 1174l-182 273h-191l-182 -273h144l134 183l133 -183h144z" />
    <glyph glyph-name="Ydieresis" unicode="&#x178;" horiz-adv-x="1038" 
d="M1028 1476l-434 -867v-609h-152v609l-432 867h170l338 -699l340 699h170zM240 1768h162v-162h-162v162zM636 1768h162v-162h-162v162z" />
    <glyph glyph-name="Zacute" unicode="&#x179;" 
d="M60 110l708 1214h-686v152h893v-99l-714 -1225h715v-152h-916v110zM568 1815h181l-201 -270h-145z" />
    <glyph glyph-name="zacute" unicode="&#x17a;" horiz-adv-x="875" 
d="M64 121l528 839h-532v152h755v-83l-552 -877h542v-152h-741v121zM487 1451h181l-201 -270h-145z" />
    <glyph glyph-name="Zdotaccent" unicode="&#x17b;" 
d="M60 110l708 1214h-686v152h893v-99l-714 -1225h715v-152h-916v110zM449 1740h138v-138h-138v138z" />
    <glyph glyph-name="zdotaccent" unicode="&#x17c;" horiz-adv-x="875" 
d="M64 121l528 839h-532v152h755v-83l-552 -877h542v-152h-741v121zM369 1376h138v-138h-138v138z" />
    <glyph glyph-name="Zcaron" unicode="&#x17d;" 
d="M60 110l708 1214h-686v152h893v-99l-714 -1225h715v-152h-916v110zM652 1811l-133 -183l-134 183h-144l182 -273h191l182 273h-144z" />
    <glyph glyph-name="zcaron" unicode="&#x17e;" horiz-adv-x="875" 
d="M64 121l528 839h-532v152h755v-83l-552 -877h542v-152h-741v121zM571 1447l-133 -183l-134 183h-144l182 -273h191l182 273h-144z" />
    <glyph glyph-name="longs" unicode="&#x17f;" horiz-adv-x="683" 
d="M255 1185q0 46 18 107q18 63 96 123q78 61 177 61h129v-132h-129q-57 0 -98 -41t-41 -99v-1204h-152v1185z" />
    <glyph glyph-name="_1" horiz-adv-x="399" 
d="M36 -353h47q19 0 41 1q61 3 101 22q31 19 31 62v3q-2 21 -19 36t-47 21.5t-98 6.5v111q92 2 156 -14t102.5 -64t38.5 -104q-4 -78 -62.5 -132t-202.5 -64q-56 0 -114 7z" />
    <glyph glyph-name="Atilde" unicode="&#xc3;" horiz-adv-x="1054" 
d="M295 399l-126 -399h-159l465 1476h104l465 -1476h-159l-126 399h-464zM713 547q-139 442 -186 639q-46 -197 -186 -639h372zM625 1551q-57 0 -95 24q-26 17 -42 37q-18 21 -29 29q-10 10 -31 11q-27 -2 -39 -15q-19 -20 -19 -58h-94q0 100 49 147q39 38 102 38h1
q57 0 95 -32q20 -19 50 -43t52 -24h1q27 1 39 14q20 20 20 59h94q0 -102 -49 -149q-39 -38 -103 -38h-2z" />
    </font>
</defs>
</svg>
