<?xml version="1.0" standalone="no"?>
<!DOCTYPE svg PUBLIC "-//W3C//DTD SVG 1.1//EN" "http://www.w3.org/Graphics/SVG/1.1/DTD/svg11.dtd" >
<svg xmlns="http://www.w3.org/2000/svg" xmlns:xlink="http://www.w3.org/1999/xlink" version="1.1">
<metadata>
Created by FontForge 20161003 at Wed Aug  8 20:07:55 2018
 By www-data
Typeface (c) StudioTypo. 2015. All Rights Reserved
</metadata>
<defs>
<font id="EarlyTimesLight" horiz-adv-x="966" >
  <font-face 
    font-family="Early Times Light"
    font-weight="400"
    font-stretch="normal"
    units-per-em="2048"
    panose-1="2 0 5 0 0 0 0 0 0 0"
    ascent="1638"
    descent="-410"
    x-height="1092"
    cap-height="1466"
    bbox="-430 -462 2079 1843"
    underline-thickness="150"
    underline-position="-292"
    unicode-range="U+001D-F002"
  />
<missing-glyph horiz-adv-x="240" 
 />
    <glyph glyph-name=".notdef" horiz-adv-x="240" 
 />
    <glyph glyph-name=".null" horiz-adv-x="240" 
 />
    <glyph glyph-name=".null" horiz-adv-x="240" 
 />
    <glyph glyph-name="nonmarkingreturn" horiz-adv-x="240" 
 />
    <glyph glyph-name="space" unicode=" " horiz-adv-x="501" 
 />
    <glyph glyph-name="space" unicode="&#xa0;" horiz-adv-x="501" 
 />
    <glyph glyph-name="exclam" unicode="!" horiz-adv-x="344" 
d="M224 1442h-104v-1092h104v1092zM224 104h-104v-104h104v104z" />
    <glyph glyph-name="quotedbl" unicode="&#x22;" horiz-adv-x="538" 
d="M100 1000h103v443h-103v-443zM335 1000h103v443h-103v-443z" />
    <glyph glyph-name="numbersign" unicode="#" horiz-adv-x="1420" 
d="M503 535l76 359h335l-77 -359h-334zM586 1438l-91 -429h-375v-105h353l-77 -359h-276v-104h254l-90 -426h106l91 426h334l-90 -426h106l91 426h378v104h-356l76 359h280v105h-257l91 429h-107l-91 -429h-334l91 429h-107z" />
    <glyph glyph-name="dollar" unicode="$" horiz-adv-x="1242" 
d="M675 1370q105 -12 185 -58q83 -46 106 -112l18 -49l98 36l-18 49q-37 102 -150 166q-103 59 -239 72v197h-105v-195q-32 -1 -62 -6q-163 -27 -258 -125q-94 -98 -98 -245q-6 -231 130 -320q90 -59 288 -67v-623q-132 12 -227 71q-103 64 -114 159l-5 52l-104 -12l6 -51
q15 -138 150 -228q123 -83 294 -96v-195h105v195q201 14 322 127q120 112 122 289q3 247 -141 342q-95 63 -303 71v556zM363 1304q66 47 161 63q22 3 46 5v-555q-173 8 -236 55q-82 60 -78 225q4 134 107 207zM675 709q182 -8 252 -59q90 -66 88 -248q-2 -146 -109 -230
q-90 -71 -231 -83v620z" />
    <glyph glyph-name="percent" unicode="%" horiz-adv-x="1149" 
d="M521 1278q0 77 -58 131q-59 55 -142 55t-142 -55q-59 -54 -59 -131v-267q0 -77 59 -132q59 -54 142 -54t142 54q58 55 58 132v267zM224 1278q0 33 29 57q29 25 68 25t68 -25q28 -24 28 -57v-267q0 -34 -28 -58t-68 -24t-68 24q-29 24 -29 58v267zM686 584
q-58 -55 -58 -131v-268q0 -76 58 -131q59 -54 142 -54t142 54q59 55 59 131v268q0 76 -59 131q-59 54 -142 54t-142 -54zM925 185q0 -33 -29 -57q-28 -24 -68 -24t-68 24t-28 57v268q0 33 28 57t68 24t68 -24q29 -24 29 -57v-268zM414 10l430 1443h-109l-430 -1443h109z" />
    <glyph glyph-name="ampersand" unicode="&#x26;" horiz-adv-x="1102" 
d="M961 308v273h-104v-268q-6 6 -14 15l-14 14q-320 328 -420 441l-30 35q-135 181 -135 267v75q0 94 99 150q90 52 197 52q108 0 197 -52q100 -56 100 -150v-52h104v52q0 147 -134 232q-118 74 -267 74q-148 0 -266 -74q-134 -85 -134 -232v-75q0 -118 140 -311
q-160 -85 -160 -246v-220q0 -148 134 -232q118 -74 286 -74q233 0 351 127q58 -60 108 -112l36 -37l75 73l-36 37q-58 60 -127 131q14 41 14 87zM325 155q-101 56 -101 153v220q0 107 122 163l4 2q99 -112 404 -424q32 -33 64 -65q-85 -98 -278 -98q-126 0 -215 49z" />
    <glyph glyph-name="quotesingle" unicode="'" horiz-adv-x="303" 
d="M100 1024h103v443h-103v-443z" />
    <glyph glyph-name="parenleft" unicode="(" horiz-adv-x="640" 
d="M412 1466q-312 -456 -312 -913q0 -454 302 -892h129q-327 440 -327 892q0 454 336 913h-128z" />
    <glyph glyph-name="parenright" unicode=")" horiz-adv-x="640" 
d="M100 1466q336 -459 336 -913q0 -452 -327 -892h129q302 438 302 892q0 457 -312 913h-128z" />
    <glyph glyph-name="asterisk" unicode="*" horiz-adv-x="960" 
d="M532 1205v262h-104v-262l-279 81l-29 -100l270 -79l-166 -206l81 -66l175 217l175 -217l81 66l-166 206l270 79l-29 100z" />
    <glyph glyph-name="plus" unicode="+" horiz-adv-x="1086" 
d="M595 1101h-104v-353h-371v-104h371v-354h104v354h371v104h-371v353z" />
    <glyph glyph-name="comma" unicode="," horiz-adv-x="311" 
d="M90 -169h53q59 90 68 169v114h-114v-114h34q-4 -76 -41 -169z" />
    <glyph glyph-name="hyphen" unicode="-" horiz-adv-x="1086" 
d="M120 748v-104h846v104h-846z" />
    <glyph glyph-name="hyphen" unicode="&#xad;" horiz-adv-x="1086" 
d="M120 748v-104h846v104h-846z" />
    <glyph glyph-name="period" unicode="." horiz-adv-x="314" 
d="M100 0h114v114h-114v-114z" />
    <glyph glyph-name="slash" unicode="/" horiz-adv-x="698" 
d="M121 0l567 1466h-111l-567 -1466h111z" />
    <glyph glyph-name="zero" unicode="0" horiz-adv-x="1081" 
d="M243 1359q-123 -123 -123 -297v-664q0 -174 123 -297q124 -123 297 -123q174 0 298 123q123 123 123 297v664q0 174 -123 297q-124 123 -298 123q-173 0 -297 -123zM857 398q0 -130 -93 -223t-224 -93q-130 0 -223 93t-93 223v664q0 131 93 223q93 93 223 93
q131 0 224 -93q93 -92 93 -223v-664z" />
    <glyph glyph-name="one" unicode="1" horiz-adv-x="624" 
d="M320 1466l-317 -219l59 -86l221 152v-1313h104v1466h-67z" />
    <glyph glyph-name="two" unicode="2" horiz-adv-x="1081" 
d="M252 1394q-132 -99 -132 -264v-52h104v52q0 120 101 190q89 60 216 60q132 0 222 -65q94 -69 94 -185v-38q0 -98 -93 -183q-57 -52 -218 -148q-206 -123 -288 -207q-138 -142 -138 -327v-227h841v104h-737v123q0 147 116 261q69 70 260 183q179 107 247 174
q114 111 114 247v38q0 165 -132 264q-119 90 -288 90q-170 0 -289 -90z" />
    <glyph glyph-name="three" unicode="3" horiz-adv-x="1098" 
d="M922 902q51 85 51 195q0 162 -110 269q-121 118 -322 118q-169 0 -287 -74q-134 -84 -134 -232h104q0 98 101 153q89 49 216 49q158 0 248 -87q80 -77 80 -196t-80 -196q-90 -87 -248 -87h-198v-104h198q160 0 252 -97q81 -85 81 -216t-81 -216q-92 -97 -252 -97
q-127 0 -216 49q-101 56 -101 153h-104q0 -147 134 -232q118 -74 287 -74q204 0 326 128q111 115 111 289q0 118 -52 211q-56 99 -157 152q98 51 153 142z" />
    <glyph glyph-name="four" unicode="4" horiz-adv-x="1106" 
d="M196 396l585 849v-849h-585zM70 291h711v-291h104v291h211v105h-211v1068h-79l-736 -1067v-106z" />
    <glyph glyph-name="five" unicode="5" horiz-adv-x="1168" 
d="M280 905v462h678v104h-782v-674l102 -47q20 63 134 105q119 45 241 26q114 -18 186 -89q104 -102 104 -301q-1 -152 -82 -260q-93 -124 -254 -127q-124 -1 -231 44q-103 47 -139 122l-95 -44q49 -102 169 -169q129 -57 298 -57q203 4 326 158q112 139 112 333
q1 255 -146 387q-94 85 -232 106q-221 35 -389 -79z" />
    <glyph glyph-name="six" unicode="6" horiz-adv-x="1117" 
d="M221 808q1 88 11 228q23 334 337 334q98 0 180 -35q81 -36 115 -94l26 -45l90 52l-26 45q-48 83 -153 132q-105 50 -232 50q-199 0 -313 -112q-114 -111 -128 -320l-8 -512q0 -62 1 -82l5 -49q20 -147 104 -253q126 -157 339 -157h3q208 1 333 157q112 141 112 339
q-1 199 -115 339q-125 156 -333 156q-221 0 -348 -173zM569 94q-163 0 -257 119q-78 97 -87 239v1q0 16 -1 45q5 153 88 258q95 120 257 120q165 0 260 -124q83 -110 84 -266q0 -156 -82 -266q-95 -125 -259 -126h-3z" />
    <glyph glyph-name="seven" unicode="7" horiz-adv-x="1105" 
d="M375 0q182 739 690 1362v105h-1025v-104h892q-489 -622 -665 -1363h108z" />
    <glyph glyph-name="eight" unicode="8" horiz-adv-x="1006" 
d="M774 845q91 103 91 261q0 159 -93 263q-102 115 -273 115t-274 -116q-91 -103 -91 -262q0 -212 156 -317q-68 -33 -119 -86q-111 -118 -111 -297q0 -177 112 -295q123 -131 327 -131q210 0 335 127q112 115 112 293q0 129 -60 229q-63 107 -176 160q35 24 64 56z
M303 1299q72 81 196 81q126 0 198 -84q64 -74 64 -190q0 -118 -66 -192q-71 -81 -196 -81t-198 84q-63 74 -63 189q0 119 65 193zM499 84q-161 0 -253 100q-82 87 -82 222q0 138 83 225q92 98 252 98q165 0 260 -102q83 -90 83 -227q0 -135 -83 -220q-93 -96 -260 -96z" />
    <glyph glyph-name="nine" unicode="9" horiz-adv-x="1123" 
d="M998 966q0 13 -1 29l-1 27h-1q-15 170 -107 290q-126 163 -340 163h-3q-208 -2 -332 -162q-113 -145 -112 -350q0 -205 114 -349q126 -160 334 -160q221 0 347 177q-1 -73 -10 -203q-23 -334 -337 -334q-99 0 -180 36q-81 35 -115 93l-90 -52q47 -82 152 -132
q105 -49 233 -49q199 0 313 111q114 112 128 320q13 195 8 538v7zM289 688q-84 113 -84 276q-1 162 82 276q94 129 259 130h2q163 0 257 -122q80 -104 88 -256q0 -38 0 -34q-2 -161 -85 -272q-95 -128 -259 -128q-165 0 -260 130z" />
    <glyph glyph-name="colon" unicode=":" horiz-adv-x="314" 
d="M100 0h114v114h-114v-114zM100 947h114v114h-114v-114z" />
    <glyph glyph-name="semicolon" unicode=";" horiz-adv-x="314" 
d="M90 -169h53q59 90 68 169v114h-114v-114h34q-4 -76 -41 -169zM100 947h114v114h-114v-114z" />
    <glyph glyph-name="semicolon" unicode="&#x37e;" horiz-adv-x="314" 
d="M90 -169h53q59 90 68 169v114h-114v-114h34q-4 -76 -41 -169zM100 947h114v114h-114v-114z" />
    <glyph glyph-name="less" unicode="&#x3c;" horiz-adv-x="750" 
d="M50 665l650 -465v129l-557 397l557 398v129l-650 -465v-123z" />
    <glyph glyph-name="equal" unicode="=" horiz-adv-x="1086" 
d="M120 948v-104h846v104h-846zM120 548v-104h846v104h-846z" />
    <glyph glyph-name="greater" unicode="&#x3e;" horiz-adv-x="750" 
d="M700 788l-650 465v-129l557 -398l-557 -397v-129l650 465v123z" />
    <glyph glyph-name="question" unicode="?" horiz-adv-x="1007" 
d="M254 1408q-134 -85 -134 -232v-52h104v52q0 94 99 150q90 52 217 52t216 -49q101 -56 101 -153v-173q0 -76 -45 -114q-32 -27 -132 -61q-128 -43 -183 -91q-95 -84 -95 -241v-231h104v231q0 110 60 164q38 33 147 69q118 40 166 80q82 68 82 194v173q0 147 -134 232
q-118 74 -287 74q-168 0 -286 -74zM397 0h114v114h-114v-114z" />
    <glyph glyph-name="at" unicode="@" horiz-adv-x="1578" 
d="M316 1249q-196 -215 -196 -517q0 -303 196 -518q196 -214 473 -214q96 0 189 29l49 16l-31 99l-50 -16q-77 -24 -157 -24q-234 0 -399 184q-166 184 -166 444q0 259 166 443q165 185 399 185t399 -185q166 -184 166 -443q0 -98 -27 -192l-16 -48l-3 -8q-20 -55 -71 -86
q-48 -29 -94 -22q-76 12 -76 126v348l1 51h-1v86h-6q-15 71 -62 118q-61 63 -153 63h-169q-92 0 -157 -70t-65 -169v-52h104v52q0 55 35 95q34 39 83 39h169q48 0 79 -31q39 -40 38 -107v-1l-1 -51h1v-22q-1 -33 -16 -43q-22 -14 -101 -14h-169q-92 0 -157 -70t-65 -168
q0 -99 65 -169t157 -70h169q82 0 144 58q44 -87 137 -102q16 -3 33 -3q67 0 130 39q62 38 98 100l3 -1l18 49l1 1v1q48 131 48 273q0 302 -196 517t-473 215t-473 -215zM677 421q-49 0 -83 40q-35 39 -35 95q0 55 35 95q34 39 83 39h169q76 0 117 12v-146q0 -56 -34 -95
q-35 -40 -83 -40h-169z" />
    <glyph glyph-name="A" unicode="A" horiz-adv-x="1020" 
d="M471 1466q-75 -237 -225 -717q-180 -571 -236 -749h109l165 524h451l165 -524h110q-64 204 -234 741q-152 484 -228 725h-77zM317 628l193 613l192 -613h-385z" />
    <glyph glyph-name="B" unicode="B" horiz-adv-x="1157" 
d="M958 832q86 106 86 257q0 152 -89 259q-98 118 -261 118h-554v-1466h584q168 0 267 132q86 114 86 276q0 113 -47 209q-49 103 -137 154q36 26 65 61zM244 1362h450q118 0 186 -87q59 -77 59 -186q0 -114 -62 -191q-67 -83 -183 -83h-450v547zM724 105h-480v606h480
q120 0 188 -97q60 -85 60 -206q0 -127 -64 -213q-68 -90 -184 -90z" />
    <glyph glyph-name="C" unicode="C" horiz-adv-x="1181" 
d="M274 1385q-154 -99 -154 -273v-771q0 -174 154 -273q134 -88 327 -88q192 0 327 88q153 99 153 273v52h-104v-52q0 -123 -120 -194q-106 -63 -256 -63q-151 0 -256 63q-121 71 -121 194v771q0 123 121 194q105 63 256 63q159 0 266 -69q110 -71 110 -188v-52h104v52
q0 174 -153 273q-135 88 -327 88q-193 0 -327 -88z" />
    <glyph glyph-name="D" unicode="D" horiz-adv-x="1180" 
d="M140 1466v-1466h476q291 0 397 245q87 201 87 488q0 288 -87 489q-106 244 -397 244h-476zM616 105h-372v1257h372q229 0 308 -200q72 -181 72 -429q0 -265 -79 -447q-79 -181 -301 -181z" />
    <glyph glyph-name="E" unicode="E" horiz-adv-x="964" 
d="M140 0h784v105h-680v576h574v105h-574v576h680v104h-784v-1466z" />
    <glyph glyph-name="F" unicode="F" horiz-adv-x="944" 
d="M140 0h104v681h574v105h-574v576h680v104h-784v-1466z" />
    <glyph glyph-name="G" unicode="G" horiz-adv-x="1201" 
d="M274 1385q-154 -99 -154 -273v-771q0 -174 154 -273q134 -88 327 -88q192 0 327 88q153 99 153 273v438h-532v-105h428v-333q0 -123 -120 -194q-106 -63 -256 -63q-151 0 -256 63q-121 71 -121 194v771q0 123 121 194q105 63 256 63q159 0 266 -69q110 -71 110 -188v-52
h104v52q0 174 -153 273q-135 88 -327 88q-193 0 -327 -88z" />
    <glyph glyph-name="H" unicode="H" horiz-adv-x="1182" 
d="M938 786h-694v680h-104v-1466h104v681h694v-681h104v1466h-104v-680z" />
    <glyph glyph-name="I" unicode="I" horiz-adv-x="404" 
d="M150 0h104v1466h-104v-1466z" />
    <glyph glyph-name="J" unicode="J" horiz-adv-x="871" 
d="M130 68q-115 96 -115 257v52h104v-52q0 -116 84 -182q74 -59 180 -59t180 59q84 66 84 182v1138h104v-1138q0 -161 -115 -257q-105 -88 -253 -88t-253 88z" />
    <glyph glyph-name="K" unicode="K" horiz-adv-x="1034" 
d="M882 1466q-537 -655 -638 -780v780h-104v-1466h104v520l208 257l451 -777h121l-502 864l494 602h-134z" />
    <glyph glyph-name="L" unicode="L" horiz-adv-x="964" 
d="M244 1466h-104v-1466h804v105h-700v1361z" />
    <glyph glyph-name="M" unicode="M" horiz-adv-x="1446" 
d="M140 1466v-1466h104v1137l444 -1137h71l443 1137v-1137h104v1466h-87l-496 -1270l-495 1270h-88z" />
    <glyph glyph-name="N" unicode="N" horiz-adv-x="1151" 
d="M906 251l-683 1215h-83v-1466h104v1215l684 -1215h83v1466h-105v-1215z" />
    <glyph glyph-name="O" unicode="O" horiz-adv-x="1201" 
d="M274 1385q-154 -99 -154 -273v-771q0 -174 154 -273q134 -88 327 -88q192 0 327 88q153 99 153 273v771q0 174 -153 273q-135 88 -327 88q-193 0 -327 -88zM977 341q0 -123 -120 -194q-106 -63 -256 -63q-151 0 -256 63q-121 71 -121 194v771q0 123 121 194
q105 63 256 63q150 0 256 -63q120 -71 120 -194v-771z" />
    <glyph glyph-name="P" unicode="P" horiz-adv-x="1081" 
d="M140 1466v-1466h104v601h421q170 0 270 141q86 121 86 292q0 174 -91 297q-99 135 -265 135h-525zM665 705h-421v657h421q121 0 190 -105q61 -92 61 -223q0 -138 -66 -232q-69 -97 -185 -97z" />
    <glyph glyph-name="Q" unicode="Q" horiz-adv-x="1194" 
d="M256 228q-32 50 -32 113v771q0 123 121 194q105 63 256 63q150 0 256 -63q120 -71 120 -194v-771q0 -123 -120 -194q-29 -17 -62 -30l-12 11q-23 24 -49 55q-124 148 -224 156q-106 10 -254 -111zM686 90q-40 -6 -85 -6q-151 0 -256 63l-20 12q114 92 176 87
q54 -4 152 -119q14 -18 29 -33zM861 -47q161 -61 371 59l-47 83q-170 -97 -282 -56q-7 2 -15 6q21 10 40 23q153 99 153 273v771q0 174 -153 273q-135 88 -327 88q-193 0 -327 -88q-154 -99 -154 -273v-771q0 -174 154 -273q134 -88 327 -88q96 0 177 22q44 -34 83 -49z" />
    <glyph glyph-name="R" unicode="R" horiz-adv-x="1127" 
d="M244 737v627h421q120 0 189 -100q61 -88 61 -213q0 -132 -66 -221q-68 -93 -184 -93h-421zM1117 0q-271 531 -384 639q123 24 200 129q86 117 86 283q0 168 -90 286q-99 131 -264 131h-525v-1466h104v631h278q103 0 219 -165q67 -94 258 -468h118z" />
    <glyph glyph-name="S" unicode="S" horiz-adv-x="1203" 
d="M328 859q-97 57 -92 235q4 134 107 207q66 47 161 63q144 23 277 -27t165 -140l18 -49l98 36l-18 49q-49 135 -224 201q-161 61 -333 33q-163 -27 -257 -125t-98 -245q-7 -247 151 -332q92 -50 319 -57q216 -6 290 -51q105 -64 103 -258q-2 -152 -116 -236
q-97 -71 -244 -78q-153 -8 -278 54q-135 67 -148 178l-5 52l-104 -12l6 -51q17 -149 171 -242q142 -84 328 -84q18 0 35 1q207 10 332 124q125 113 127 293q4 264 -162 354q-96 53 -332 60q-209 7 -277 47z" />
    <glyph glyph-name="T" unicode="T" horiz-adv-x="903" 
d="M20 1466v-104h379v-1362h105v1362h379v104h-863z" />
    <glyph glyph-name="U" unicode="U" horiz-adv-x="1139" 
d="M915 347q0 -123 -111 -194q-96 -63 -235 -63q-138 0 -234 63q-111 71 -111 194v1118h-104v-1118q0 -168 141 -269q128 -92 308 -92q181 0 309 92q141 101 141 269v1118h-104v-1118z" />
    <glyph glyph-name="V" unicode="V" horiz-adv-x="953" 
d="M119 1466h-109l428 -1466h78l427 1466h-109l-357 -1227z" />
    <glyph glyph-name="W" unicode="W" horiz-adv-x="1747" 
d="M912 1466h-78l-359 -1227l-356 1227h-109l426 -1466h79l358 1228l358 -1228h78l428 1466h-109l-358 -1227z" />
    <glyph glyph-name="X" unicode="X" horiz-adv-x="996" 
d="M864 1466l-365 -629l-368 629h-120l427 -733l-428 -733h121l368 630l366 -630h121l-427 733l426 733h-121z" />
    <glyph glyph-name="Y" unicode="Y" horiz-adv-x="986" 
d="M860 1466l-370 -730l-364 730h-116l428 -859v-607h104v607l434 859h-116z" />
    <glyph glyph-name="Z" unicode="Z" horiz-adv-x="1023" 
d="M68 0h890v105h-755l760 1303v58h-903v-104h756l-748 -1281v-81z" />
    <glyph glyph-name="bracketleft" unicode="[" horiz-adv-x="629" 
d="M120 -320h389v104h-285v1576h285v104h-389v-1784z" />
    <glyph glyph-name="backslash" unicode="\" horiz-adv-x="698" 
d="M688 0l-566 1466h-112l567 -1466h111z" />
    <glyph glyph-name="bracketright" unicode="]" horiz-adv-x="629" 
d="M509 1464h-389v-104h285v-1576h-285v-104h389v1784z" />
    <glyph glyph-name="asciicircum" unicode="^" horiz-adv-x="931" 
d="M921 863l-396 603h-120l-395 -603h124l331 505l331 -505h125z" />
    <glyph glyph-name="underscore" unicode="_" horiz-adv-x="1086" 
d="M-80 -2v-104h1246v104h-1246z" />
    <glyph glyph-name="grave" unicode="`" horiz-adv-x="682" 
d="M415 1161h-95l-201 280h131z" />
    <glyph glyph-name="a" unicode="a" horiz-adv-x="946" 
d="M394 1092q-113 0 -194 -80q-80 -81 -80 -194h104q0 70 50 120t120 50h158q70 0 120 -50q49 -50 49 -120v-164h-347q-117 0 -194 -65q-80 -69 -80 -179v-136q0 -113 80 -193q81 -81 194 -81h178q95 0 169 79v-79h105v818q0 113 -81 194q-80 80 -193 80h-158zM721 550v-276
q0 -70 -49 -120q-50 -49 -120 -49h-178q-70 0 -120 49q-50 50 -50 120v136q0 67 50 105q46 35 120 35h347z" />
    <glyph glyph-name="b" unicode="b" horiz-adv-x="946" 
d="M394 1092q-95 0 -170 -79v453h-104v-1466h104v79q75 -79 170 -79h178q113 0 193 81q81 80 81 193v544q0 113 -81 194q-80 80 -193 80h-178zM741 274q0 -70 -49 -120q-50 -49 -120 -49h-178q-70 0 -120 49q-50 50 -50 120v544q0 70 50 120t120 50h178q70 0 120 -50
q49 -50 49 -120v-544z" />
    <glyph glyph-name="c" unicode="c" horiz-adv-x="946" 
d="M394 1092q-113 0 -194 -80q-80 -81 -80 -194v-544q0 -113 80 -193q81 -81 194 -81h178q113 0 193 81q81 80 81 193v52h-105v-52q0 -70 -49 -120q-50 -49 -120 -49h-178q-70 0 -120 49q-50 50 -50 120v544q0 70 50 120t120 50h178q70 0 120 -50q49 -50 49 -120v-52h105v52
q0 113 -81 194q-80 80 -193 80h-178z" />
    <glyph glyph-name="d" unicode="d" horiz-adv-x="945" 
d="M374 1092q-113 0 -194 -80q-80 -81 -80 -194v-544q0 -113 80 -193q81 -81 194 -81h177q95 0 170 79v-79h104v1466h-104v-453q-75 79 -170 79h-177zM204 818q0 70 50 120t120 50h177q71 0 120 -50q50 -50 50 -120v-544q0 -70 -50 -120q-49 -49 -120 -49h-177
q-70 0 -120 49q-50 50 -50 120v544z" />
    <glyph glyph-name="e" unicode="e" 
d="M394 1092q-113 0 -194 -80q-80 -81 -80 -194v-544q0 -113 80 -193q81 -81 194 -81h178q113 0 193 81q81 80 81 193h-105q0 -70 -49 -120q-50 -49 -120 -49h-178q-70 0 -120 49q-50 50 -50 120v220h622v324q0 113 -81 194q-80 80 -193 80h-178zM741 598h-517v220
q0 70 50 120t120 50h178q70 0 120 -50q49 -50 49 -120v-220z" />
    <glyph glyph-name="f" unicode="f" horiz-adv-x="574" 
d="M176 1166v-74h-118v-104h118v-988h105v988h233v104h-233v101q0 70 49 119q50 50 120 50h100v104h-100q-99 0 -174 -63q-101 -80 -100 -237z" />
    <glyph glyph-name="g" unicode="g" 
d="M741 1012q-74 79 -169 79h-178q-113 0 -194 -80q-80 -81 -80 -194v-544q0 -113 80 -194q81 -80 194 -80h178q95 0 169 79v-179q0 -70 -49 -120q-50 -50 -120 -50h-178q-70 0 -120 50t-50 120h-104q0 -113 80 -194q81 -80 194 -80h178q113 0 193 80q81 81 81 194v1192
h-105v-79zM394 103q-70 0 -120 50t-50 120v544q0 70 50 120t120 50h178q70 0 120 -50q49 -50 49 -120v-544q0 -70 -49 -120q-50 -50 -120 -50h-178z" />
    <glyph glyph-name="h" unicode="h" horiz-adv-x="946" 
d="M394 1092q-95 0 -170 -79v453h-104v-1466h104v818q0 70 50 120t120 50h178q70 0 120 -50q49 -50 49 -120v-818h105v818q0 113 -81 194q-80 80 -193 80h-178z" />
    <glyph glyph-name="i" unicode="i" horiz-adv-x="404" 
d="M150 0h104v1092h-104v-1092zM150 1362h104v104h-104v-104z" />
    <glyph glyph-name="j" unicode="j" horiz-adv-x="399" 
d="M145 -101q0 -70 -50 -120t-120 -50h-52v-104h52q113 0 194 80q80 81 80 194v1192h-104v-1192zM150 1362h104v104h-104v-104z" />
    <glyph glyph-name="k" unicode="k" horiz-adv-x="908" 
d="M745 1092l-501 -490v864h-104v-1466h104v466l183 171l356 -637h125l-402 713l392 379h-153z" />
    <glyph glyph-name="l" unicode="l" horiz-adv-x="404" 
d="M150 0h104v1466h-104v-1466z" />
    <glyph glyph-name="m" unicode="m" horiz-adv-x="1410" 
d="M926 1092q-139 0 -221 -113q-83 113 -222 113h-89q-95 0 -170 -79v79h-104v-1092h104v818q0 70 50 120t120 50h89q70 0 120 -50t50 -120v-818h104v818q0 70 50 120q49 50 119 50h90q70 0 120 -50q49 -50 49 -120v-818h105v818q0 113 -81 194q-80 80 -193 80h-90z" />
    <glyph glyph-name="n" unicode="n" 
d="M394 1092q-95 0 -170 -79v79h-104v-1092h104v818q0 70 50 120t120 50h178q70 0 120 -50q49 -50 49 -120v-818h105v818q0 113 -81 194q-80 80 -193 80h-178z" />
    <glyph glyph-name="o" unicode="o" 
d="M394 1092q-113 0 -194 -80q-80 -81 -80 -194v-544q0 -113 80 -193q81 -81 194 -81h178q113 0 193 81q81 80 81 193v544q0 113 -81 194q-80 80 -193 80h-178zM741 274q0 -70 -49 -120q-50 -49 -120 -49h-178q-70 0 -120 49q-50 50 -50 120v544q0 70 50 120t120 50h178
q70 0 120 -50q49 -50 49 -120v-544z" />
    <glyph glyph-name="p" unicode="p" horiz-adv-x="946" 
d="M394 1091q-95 0 -170 -79v79h-104v-1466h104v453q75 -79 170 -79h178q113 0 193 81q81 80 81 193v544q0 113 -81 194q-80 80 -193 80h-178zM741 273q0 -70 -49 -120q-50 -49 -120 -49h-178q-70 0 -120 49q-50 50 -50 120v544q0 70 50 120t120 50h178q70 0 120 -50
q49 -50 49 -120v-544z" />
    <glyph glyph-name="q" unicode="q" horiz-adv-x="946" 
d="M374 1091q-113 0 -194 -80q-80 -81 -80 -194v-544q0 -113 80 -193q81 -81 194 -81h178q95 0 169 79v-453h105v1466h-105v-79q-74 79 -169 79h-178zM204 817q0 70 50 120t120 50h178q70 0 120 -50q49 -50 49 -120v-544q0 -70 -49 -120q-50 -49 -120 -49h-178
q-70 0 -120 49q-50 50 -50 120v544z" />
    <glyph glyph-name="r" unicode="r" horiz-adv-x="584" 
d="M224 1092h-104v-1092h104v666q0 171 68 247q67 75 220 75h52v104h-52q-191 0 -288 -118v118z" />
    <glyph glyph-name="s" unicode="s" horiz-adv-x="958" 
d="M403 619q-82 0 -128 58q-41 51 -41 126q0 78 43 130q46 55 126 55h149q59 0 106 -38q46 -38 59 -95l11 -51l102 22l-11 51q-21 93 -96 154q-76 61 -171 61h-149q-129 0 -206 -93q-67 -81 -67 -196q0 -116 69 -198q77 -90 204 -90h178q91 0 137 -74q35 -56 35 -131
q0 -87 -45 -145q-46 -60 -127 -60h-207q-70 0 -120 49q-50 50 -50 120v52h-104v-52q0 -113 80 -193q81 -81 194 -81h207q129 0 206 97q71 88 71 213q0 124 -71 212q-77 97 -206 97h-178z" />
    <glyph glyph-name="t" unicode="t" horiz-adv-x="634" 
d="M355 1466h-104v-374h-171v-104h171v-798q0 -83 18 -121q32 -69 128 -69h137v100h-137q-34 0 -38 15q-4 22 -4 74v799h189v104h-189v374z" />
    <glyph glyph-name="u" unicode="u" 
d="M741 274q0 -70 -49 -120q-50 -49 -120 -49h-178q-70 0 -120 49q-50 50 -50 120v818h-104v-818q0 -113 80 -193q81 -81 194 -81h178q113 0 193 81q81 80 81 193v818h-105v-818z" />
    <glyph glyph-name="v" unicode="v" horiz-adv-x="782" 
d="M119 1092h-109l342 -1092h76l344 1092h-109l-273 -866z" />
    <glyph glyph-name="w" unicode="w" horiz-adv-x="1340" 
d="M636 1012l-271 -786l-247 866h-108l310 -1092h77l273 792l274 -792h76l310 1092h-108l-246 -866l-271 786h-69z" />
    <glyph glyph-name="x" unicode="x" horiz-adv-x="831" 
d="M697 1092l-281 -448l-283 448h-123l344 -546l-343 -546h123l282 448l282 -448h123l-344 546l343 546h-123z" />
    <glyph glyph-name="y" unicode="y" horiz-adv-x="814" 
d="M695 1093l-273 -866l-272 866h-109l326 -1040l-63 -203q-21 -67 -84 -100q-61 -30 -129 -11l-50 16l-31 -100l50 -16q40 -12 82 -12q88 0 160 52q74 53 101 140l401 1274h-109z" />
    <glyph glyph-name="z" unicode="z" horiz-adv-x="825" 
d="M40 0h715v105h-579l578 919v68h-695v-104h549l-568 -904v-84z" />
    <glyph glyph-name="braceleft" unicode="{" horiz-adv-x="571" 
d="M50 525q104 -73 121 -106q12 -22 6 -106l-6 -393q-4 -155 36 -196q44 -44 238 -44h76v104h-48q-178 0 -192 13q-9 9 -6 121l6 388q7 102 -11 147q-21 52 -106 117q84 60 106 110q18 42 11 140l-7 402q-4 110 6 121q16 17 229 17h12v104h-12q-155 0 -202 -6
q-69 -9 -102 -43q-41 -42 -35 -196l7 -406q6 -79 -6 -98q-17 -28 -121 -96v-94z" />
    <glyph glyph-name="bar" unicode="|" horiz-adv-x="344" 
d="M120 -320h104v1784h-104v-1784z" />
    <glyph glyph-name="braceright" unicode="}" horiz-adv-x="571" 
d="M521 619q-104 68 -121 96q-12 19 -6 98l7 406q6 154 -35 196q-33 34 -102 43q-47 6 -202 6h-12v-104h12q213 0 229 -17q10 -11 6 -121l-7 -402q-7 -98 11 -140q22 -50 106 -110q-85 -65 -106 -117q-18 -45 -11 -147l6 -388q3 -112 -6 -121q-14 -13 -192 -13h-48v-104h76
q194 0 238 44q40 41 36 196l-6 393q-6 84 6 106q17 33 121 106v94z" />
    <glyph glyph-name="asciitilde" unicode="~" horiz-adv-x="1299" 
d="M816 996q-71 2 -202 85q-160 103 -255 81q-111 -25 -212 -187l-27 -45l89 -55l27 45q78 125 146 141q52 12 176 -68q150 -95 246 -101q167 -11 339 170l36 38l-76 72l-36 -38q-135 -143 -251 -138z" />
    <glyph glyph-name="exclamdown" unicode="&#xa1;" horiz-adv-x="344" 
d="M120 -350h104v1092h-104v-1092zM120 988h104v104h-104v-104z" />
    <glyph glyph-name="cent" unicode="&#xa2;" horiz-adv-x="1071" 
d="M849 670l102 23l-12 51q-45 194 -247 272l36 158l-102 23l-35 -156q-29 4 -57 4q-171 0 -293 -111q-121 -111 -121 -267v-217q0 -117 72 -212q70 -94 184 -137l-36 -158l101 -23l36 156q29 -4 57 -4q146 0 260 85q115 85 145 216l12 51l-102 23l-12 -51
q-22 -95 -108 -157q-85 -63 -195 -63q-17 0 -34 2l168 735q139 -60 169 -192zM273 303q-49 67 -49 147v217q0 113 91 193t219 80q15 0 33 -2l-168 -734q-79 33 -126 99z" />
    <glyph glyph-name="sterling" unicode="&#xa3;" horiz-adv-x="1289" 
d="M347 65q52 11 96 11q85 0 187 -26q188 -48 261 -48q92 0 231 69l-46 93q-117 -58 -185 -58q-60 0 -235 45q-115 30 -213 30q-12 0 -26 -1q46 64 74 128q53 119 57 228q2 61 -16 159h239v104h-263q-3 14 -9 37v2q-46 183 -42 296q4 94 71 161t164 67q89 0 151 -64
q64 -64 73 -182l4 -52l104 8l-4 52q-12 155 -102 247q-93 95 -226 95q-140 0 -237 -97q-97 -95 -102 -231q-5 -128 45 -325v-2q1 -3 3 -12h-207v-104h231q21 -101 19 -155q-4 -89 -49 -190q-36 -81 -105 -166z" />
    <glyph glyph-name="currency" unicode="&#xa4;" horiz-adv-x="1198" 
d="M895 1085q-130 109 -296 109t-295 -109l-125 131l-69 -75l124 -129q-103 -133 -103 -304t103 -305l-124 -128l69 -75l125 130q129 -108 295 -108t296 108l125 -130l68 75l-124 128q104 134 104 305t-104 304l124 129l-68 75zM337 438q-109 112 -109 270t109 270t262 112
q154 0 263 -112t109 -270t-109 -270t-263 -112q-153 0 -262 112z" />
    <glyph glyph-name="yen" unicode="&#xa5;" horiz-adv-x="1370" 
d="M685 752l-478 732l-87 -57l469 -718h-252v-104h296v-153h-296v-104h296v-348h104v348h296v104h-296v153h296v104h-252l469 718l-88 57z" />
    <glyph glyph-name="brokenbar" unicode="&#xa6;" horiz-adv-x="344" 
d="M120 699.402h104v767.107h-104v-767.107zM120 -358.598h104v767.107h-104v-767.107z" />
    <glyph glyph-name="section" unicode="&#xa7;" horiz-adv-x="1007" 
d="M420 966l-45 15q-127 50 -127 182q0 95 72 157q73 61 184 61q169 0 247 -117l29 -44l87 58l-29 44q-110 163 -334 163q-154 0 -257 -92t-103 -230q0 -162 119 -241q-119 -93 -119 -244q0 -157 111 -235q65 -46 223 -85q158 -40 214 -82q91 -70 91 -223q0 -126 -82 -215
t-197 -89q-116 0 -198 89t-82 215v52h-104v-52q0 -169 113 -289q112 -119 271 -119q158 0 271 119q112 120 112 289q0 154 -72 247q72 107 72 238q0 205 -128 303q-74 58 -256 103q-53 13 -83 22zM377 870q34 -11 101 -27q158 -40 214 -82q91 -70 91 -223q0 -90 -46 -166
q-71 46 -234 87q-141 35 -188 69q-67 48 -67 150q0 133 129 192z" />
    <glyph glyph-name="dieresis" unicode="&#xa8;" horiz-adv-x="569" 
d="M50 1260h97v97h-97v-97zM422 1260h97v97h-97v-97z" />
    <glyph glyph-name="copyright" unicode="&#xa9;" horiz-adv-x="1489" 
d="M552 1127q-85 -64 -85 -171v-448q0 -107 85 -172q77 -58 185 -58q109 0 186 58q84 65 84 172v52h-104v-52q0 -61 -53 -95q-46 -31 -113 -31q-66 0 -113 31q-53 34 -53 95v448q0 60 53 95q47 30 113 30q67 0 113 -30q53 -35 53 -95v-53h104v53q0 107 -84 171
q-77 58 -186 58q-108 0 -185 -58zM272 1230q-152 -205 -152 -498q0 -294 152 -499q172 -233 465 -233q310 0 482 212q150 185 150 517q0 298 -167 487q-182 248 -465 248q-293 0 -465 -234zM737 104q-247 0 -388 200q-125 176 -125 428q0 259 131 436q142 192 382 192
q236 0 388 -215q140 -159 140 -416q0 -295 -127 -451q-141 -174 -401 -174z" />
    <glyph glyph-name="guillemotleft" unicode="&#xab;" horiz-adv-x="1028" 
d="M585 103l-429 435l429 434h-148l-427 -434l428 -435h147zM991 103l-429 435l429 434h-148l-427 -434l428 -435h147z" />
    <glyph glyph-name="logicalnot" unicode="&#xac;" horiz-adv-x="1063" 
d="M1053 973h-1043v-103h940v-440h103v543z" />
    <glyph glyph-name="registered" unicode="&#xae;" horiz-adv-x="1474" 
d="M1044 957q0 229 -271 229h-270v-909h105v403h114v-1l21 1l227 -421l92 49l-207 383q82 22 132 75q57 59 57 146v45zM760 785h-152v297h165q110 0 146 -41q20 -24 20 -84v-45q0 -104 -136 -125l-9 16zM271 1230q-151 -205 -151 -498q0 -294 151 -499q173 -233 466 -233
t466 233q151 205 151 499q0 293 -151 498q-173 234 -466 234t-466 -234zM737 104q-247 0 -388 200q-125 176 -125 428q0 259 131 436q142 192 382 192q247 0 389 -201q124 -176 124 -427q0 -259 -131 -437q-141 -191 -382 -191z" />
    <glyph glyph-name="macron" unicode="&#xaf;" horiz-adv-x="646" 
d="M50 1444v-104h546v104h-546z" />
    <glyph glyph-name="plusminus" unicode="&#xb1;" horiz-adv-x="1086" 
d="M595 1101h-104v-353h-371v-104h371v-354h104v354h371v104h-371v353zM110 155h847v-99h-847v99z" />
    <glyph glyph-name="acute" unicode="&#xb4;" horiz-adv-x="682" 
d="M440 1441h131l-201 -280h-95z" />
    <glyph glyph-name="mu" unicode="&#xb5;" horiz-adv-x="1119" 
d="M894 696q0 -167 -98 -285t-237 -118q-138 0 -236 118q-99 118 -99 285v397h-104v-1464h104v739q132 -179 335 -179t335 179v-286h105v1011h-105v-397z" />
    <glyph glyph-name="paragraph" unicode="&#xb6;" horiz-adv-x="1180" 
d="M642 1464v-7q-226 -33 -374 -171q-148 -139 -148 -320q0 -182 148 -320t374 -171v-475h105v1360h90v-1360h104v1360h119v104h-418zM343 1213q117 108 299 138v-771q-182 31 -299 138q-119 108 -119 248q0 139 119 247z" />
    <glyph glyph-name="periodcentered" unicode="&#xb7;" horiz-adv-x="501" 
d="M100 685h97v96h-97v-96z" />
    <glyph glyph-name="periodcentered" unicode="&#x2219;" horiz-adv-x="501" 
d="M100 685h97v96h-97v-96z" />
    <glyph glyph-name="cedilla" unicode="&#xb8;" horiz-adv-x="682" 
d="M180 -457q41 -5 96 -5q137 10 192 60t58 121q0 51 -35.5 95t-116.5 62l35 124h-93l-53 -195q51 0 80 -7t54 -24.5t29 -46.5v-4q0 -46 -48 -75q-45 -21 -102 -24q-21 -1 -41 -1h-36z" />
    <glyph glyph-name="guillemotright" unicode="&#xbb;" horiz-adv-x="1057" 
d="M197 103l428 435l-427 434h-148l429 -434l-429 -435h147zM603 103l428 435l-427 434h-148l429 -434l-429 -435h147z" />
    <glyph glyph-name="questiondown" unicode="&#xbf;" horiz-adv-x="1007" 
d="M827 -316q134 85 134 232v52h-104v-52q0 -94 -99 -150q-90 -52 -217 -52t-216 49q-101 56 -101 153v173q0 76 45 114q32 27 132 61q128 43 183 91q95 84 95 241v231h-104v-231q0 -110 -60 -164q-38 -33 -147 -69q-118 -40 -166 -80q-82 -68 -82 -194v-173
q0 -147 134 -232q118 -74 287 -74q168 0 286 74zM684 1092h-114v-114h114v114z" />
    <glyph glyph-name="Agrave" unicode="&#xc0;" horiz-adv-x="1020" 
d="M471 1466q-75 -237 -225 -717q-180 -571 -236 -749h109l165 524h451l165 -524h110q-64 204 -234 741q-152 484 -228 725h-77zM317 628l193 613l192 -613h-385zM609 1535h-95l-201 280h131z" />
    <glyph glyph-name="Aacute" unicode="&#xc1;" horiz-adv-x="1020" 
d="M471 1466q-75 -237 -225 -717q-180 -571 -236 -749h109l165 524h451l165 -524h110q-64 204 -234 741q-152 484 -228 725h-77zM317 628l193 613l192 -613h-385zM576 1815h131l-201 -280h-95z" />
    <glyph glyph-name="Acircumflex" unicode="&#xc2;" horiz-adv-x="1020" 
d="M471 1466q-75 -237 -225 -717q-180 -571 -236 -749h109l165 524h451l165 -524h110q-64 204 -234 741q-152 484 -228 725h-77zM317 628l193 613l192 -613h-385zM747 1548l-172 263h-131l-172 -263h114l124 183l123 -183h114z" />
    <glyph glyph-name="Adieresis" unicode="&#xc4;" horiz-adv-x="1020" 
d="M471 1466q-75 -237 -225 -717q-180 -571 -236 -749h109l165 524h451l165 -524h110q-64 204 -234 741q-152 484 -228 725h-77zM317 628l193 613l192 -613h-385zM276 1634h97v97h-97v-97zM648 1634h97v97h-97v-97z" />
    <glyph glyph-name="Aring" unicode="&#xc5;" horiz-adv-x="1020" 
d="M471 1466q-75 -237 -225 -717q-180 -571 -236 -749h109l165 524h451l165 -524h110q-64 204 -234 741q-152 484 -228 725h-77zM317 628l193 613l192 -613h-385zM511 1780q-67 0 -115 -48t-48 -114q0 -67 48 -115t115 -48q66 0 114 48t48 115q0 66 -48 114t-114 48z
M571 1678.5q25 -24.5 25 -60.5t-25 -61t-60 -25q-36 0 -61 25t-25 61t25 60.5t61 24.5q35 0 60 -24.5z" />
    <glyph glyph-name="AE" unicode="&#xc6;" horiz-adv-x="2140" 
d="M825 1482l-367 -748h-25v-50l-313 -638l94 -46l309 630h662v-612h835v104h-731v508h731v104h-731v644h731v104h-1195zM1185 734h-611l316 644h295v-644z" />
    <glyph glyph-name="Ccedilla" unicode="&#xc7;" horiz-adv-x="1181" 
d="M274 1385q-154 -99 -154 -273v-771q0 -174 154 -273q134 -88 327 -88q192 0 327 88q153 99 153 273v52h-104v-52q0 -123 -120 -194q-106 -63 -256 -63q-151 0 -256 63q-121 71 -121 194v771q0 123 121 194q105 63 256 63q159 0 266 -69q110 -71 110 -188v-52h104v52
q0 174 -153 273q-135 88 -327 88q-193 0 -327 -88zM427 -457q41 -5 96 -5q137 10 192 60t58 121q0 51 -35.5 95t-116.5 62l35 124h-93l-53 -195q51 0 80 -7t54 -24.5t29 -46.5v-4q0 -46 -48 -75q-45 -21 -102 -24q-21 -1 -41 -1h-36z" />
    <glyph glyph-name="Egrave" unicode="&#xc8;" horiz-adv-x="964" 
d="M140 0h784v105h-680v576h574v105h-574v576h680v104h-784v-1466zM631 1535h-95l-201 280h131z" />
    <glyph glyph-name="Eacute" unicode="&#xc9;" horiz-adv-x="964" 
d="M140 0h784v105h-680v576h574v105h-574v576h680v104h-784v-1466zM598 1815h131l-201 -280h-95z" />
    <glyph glyph-name="Ecircumflex" unicode="&#xca;" horiz-adv-x="964" 
d="M140 0h784v105h-680v576h574v105h-574v576h680v104h-784v-1466zM769 1548l-172 263h-131l-172 -263h114l124 183l123 -183h114z" />
    <glyph glyph-name="Edieresis" unicode="&#xcb;" horiz-adv-x="964" 
d="M140 0h784v105h-680v576h574v105h-574v576h680v104h-784v-1466zM298 1634h97v97h-97v-97zM670 1634h97v97h-97v-97z" />
    <glyph glyph-name="Igrave" unicode="&#xcc;" horiz-adv-x="404" 
d="M150 0h104v1466h-104v-1466zM301 1535h-95l-201 280h131z" />
    <glyph glyph-name="Iacute" unicode="&#xcd;" horiz-adv-x="404" 
d="M150 0h104v1466h-104v-1466zM268 1815h131l-201 -280h-95z" />
    <glyph glyph-name="Icircumflex" unicode="&#xce;" horiz-adv-x="404" 
d="M150 0h104v1466h-104v-1466zM439 1548l-172 263h-131l-172 -263h114l124 183l123 -183h114z" />
    <glyph glyph-name="Idieresis" unicode="&#xcf;" horiz-adv-x="404" 
d="M150 0h104v1466h-104v-1466zM-32 1634h97v97h-97v-97zM340 1634h97v97h-97v-97z" />
    <glyph glyph-name="Eth" unicode="&#xd0;" horiz-adv-x="1292" 
d="M331 1464v-680h-211v-105h211v-679h420q174 0 298 123q123 123 123 297v623q0 174 -123 298q-124 123 -298 123h-420zM1068 420q0 -131 -93 -223q-93 -93 -224 -93h-316v575h224v105h-224v576h316q131 0 224 -93t93 -224v-623z" />
    <glyph glyph-name="Ntilde" unicode="&#xd1;" horiz-adv-x="1151" 
d="M906 251l-683 1215h-83v-1466h104v1215l684 -1215h83v1466h-105v-1215zM673 1561q-57 0 -95 34q-21 17 -44 47q-16 21 -27 29q-10 10 -31 11q-27 -2 -39 -15q-19 -20 -19 -78h-94q0 100 49 147q39 38 102 38h1q57 0 95 -32q20 -19 42 -49q11 -14 27 -28q11 -10 33 -10h1
q27 1 39 14q20 20 20 79h94q0 -102 -49 -149q-39 -38 -103 -38h-2z" />
    <glyph glyph-name="Ograve" unicode="&#xd2;" horiz-adv-x="1201" 
d="M274 1385q-154 -99 -154 -273v-771q0 -174 154 -273q134 -88 327 -88q192 0 327 88q153 99 153 273v771q0 174 -153 273q-135 88 -327 88q-193 0 -327 -88zM977 341q0 -123 -120 -194q-106 -63 -256 -63q-151 0 -256 63q-121 71 -121 194v771q0 123 121 194
q105 63 256 63q150 0 256 -63q120 -71 120 -194v-771zM699 1535h-95l-201 280h131z" />
    <glyph glyph-name="Oacute" unicode="&#xd3;" horiz-adv-x="1201" 
d="M274 1385q-154 -99 -154 -273v-771q0 -174 154 -273q134 -88 327 -88q192 0 327 88q153 99 153 273v771q0 174 -153 273q-135 88 -327 88q-193 0 -327 -88zM977 341q0 -123 -120 -194q-106 -63 -256 -63q-151 0 -256 63q-121 71 -121 194v771q0 123 121 194
q105 63 256 63q150 0 256 -63q120 -71 120 -194v-771zM667 1815h131l-201 -280h-95z" />
    <glyph glyph-name="Ocircumflex" unicode="&#xd4;" horiz-adv-x="1201" 
d="M274 1385q-154 -99 -154 -273v-771q0 -174 154 -273q134 -88 327 -88q192 0 327 88q153 99 153 273v771q0 174 -153 273q-135 88 -327 88q-193 0 -327 -88zM977 341q0 -123 -120 -194q-106 -63 -256 -63q-151 0 -256 63q-121 71 -121 194v771q0 123 121 194
q105 63 256 63q150 0 256 -63q120 -71 120 -194v-771zM838 1548l-172 263h-131l-172 -263h114l124 183l123 -183h114z" />
    <glyph glyph-name="Otilde" unicode="&#xd5;" horiz-adv-x="1201" 
d="M274 1385q-154 -99 -154 -273v-771q0 -174 154 -273q134 -88 327 -88q192 0 327 88q153 99 153 273v771q0 174 -153 273q-135 88 -327 88q-193 0 -327 -88zM977 341q0 -123 -120 -194q-106 -63 -256 -63q-151 0 -256 63q-121 71 -121 194v771q0 123 121 194
q105 63 256 63q150 0 256 -63q120 -71 120 -194v-771zM698 1561q-57 0 -95 34q-21 17 -44 47q-16 21 -27 29q-10 10 -31 11q-27 -2 -39 -15q-19 -20 -19 -78h-94q0 100 49 147q39 38 102 38h1q57 0 95 -32q20 -19 42 -49q11 -14 27 -28q11 -10 33 -10h1q27 1 39 14
q20 20 20 79h94q0 -102 -49 -149q-39 -38 -103 -38h-2z" />
    <glyph glyph-name="Odieresis" unicode="&#xd6;" horiz-adv-x="1201" 
d="M274 1385q-154 -99 -154 -273v-771q0 -174 154 -273q134 -88 327 -88q192 0 327 88q153 99 153 273v771q0 174 -153 273q-135 88 -327 88q-193 0 -327 -88zM977 341q0 -123 -120 -194q-106 -63 -256 -63q-151 0 -256 63q-121 71 -121 194v771q0 123 121 194
q105 63 256 63q150 0 256 -63q120 -71 120 -194v-771zM366 1634h97v97h-97v-97zM738 1634h97v97h-97v-97z" />
    <glyph glyph-name="multiply" unicode="&#xd7;" horiz-adv-x="1086" 
d="M194 1146l-74 -74l349 -349l-349 -349l74 -74l349 349l349 -349l74 74l-349 349l349 349l-74 74l-349 -349z" />
    <glyph glyph-name="Oslash" unicode="&#xd8;" horiz-adv-x="1262" 
d="M936 1398q-130 74 -305 74q-192 0 -327 -88q-154 -99 -154 -273v-771q0 -132 92 -223l-122 -225l92 -50l114 211q130 -74 305 -74q193 0 327 88q154 99 154 273v771q0 132 -92 224l122 225l-91 49zM255 1111q0 123 120 194q105 63 256 63q150 0 255 -62l-591 -1091
q-40 55 -40 125v771zM1008 340q0 -123 -121 -194q-105 -63 -256 -63q-150 0 -255 62l591 1091q41 -55 41 -125v-771z" />
    <glyph glyph-name="Ugrave" unicode="&#xd9;" horiz-adv-x="1139" 
d="M915 347q0 -123 -111 -194q-96 -63 -235 -63q-138 0 -234 63q-111 71 -111 194v1118h-104v-1118q0 -168 141 -269q128 -92 308 -92q181 0 309 92q141 101 141 269v1118h-104v-1118zM668 1535h-95l-201 280h131z" />
    <glyph glyph-name="Uacute" unicode="&#xda;" horiz-adv-x="1139" 
d="M915 347q0 -123 -111 -194q-96 -63 -235 -63q-138 0 -234 63q-111 71 -111 194v1118h-104v-1118q0 -168 141 -269q128 -92 308 -92q181 0 309 92q141 101 141 269v1118h-104v-1118zM636 1815h131l-201 -280h-95z" />
    <glyph glyph-name="Ucircumflex" unicode="&#xdb;" horiz-adv-x="1139" 
d="M915 347q0 -123 -111 -194q-96 -63 -235 -63q-138 0 -234 63q-111 71 -111 194v1118h-104v-1118q0 -168 141 -269q128 -92 308 -92q181 0 309 92q141 101 141 269v1118h-104v-1118zM807 1548l-172 263h-131l-172 -263h114l124 183l123 -183h114z" />
    <glyph glyph-name="Udieresis" unicode="&#xdc;" horiz-adv-x="1139" 
d="M915 347q0 -123 -111 -194q-96 -63 -235 -63q-138 0 -234 63q-111 71 -111 194v1118h-104v-1118q0 -168 141 -269q128 -92 308 -92q181 0 309 92q141 101 141 269v1118h-104v-1118zM335 1634h97v97h-97v-97zM707 1634h97v97h-97v-97z" />
    <glyph glyph-name="Yacute" unicode="&#xdd;" horiz-adv-x="986" 
d="M860 1466l-370 -730l-364 730h-116l428 -859v-607h104v607l434 859h-116zM559 1815h131l-201 -280h-95z" />
    <glyph glyph-name="Thorn" unicode="&#xde;" horiz-adv-x="1008" 
d="M224 1095v369h-104v-1464h104v368h290q175 0 280 114q94 103 94 250q0 146 -95 249q-105 114 -279 114h-290zM514 472h-290v519h290q130 0 204 -83q66 -73 66 -176q0 -107 -67 -179q-74 -81 -203 -81z" />
    <glyph glyph-name="germandbls" unicode="&#xdf;" horiz-adv-x="1175" 
d="M672 774q-8 30 48 119q105 166 105 303q0 98 -52 168q-80 107 -270 110q-9 1 -16 1q-231 0 -313 -130q-47 -74 -53 -241l-1 -20v-1076h104v1073l1 20q5 145 40 194q57 78 236 75q220 -4 220 -174q0 -107 -89 -247q-80 -127 -61 -201q24 -96 202 -194q194 -108 153 -281
q-17 -71 -71 -118t-120 -50q-103 -3 -160 18q-56 20 -102 79l-32 41l-82 -64l32 -41q107 -138 311 -138q17 0 37 1q102 4 182 73q81 69 106 175q28 117 -26 222t-178 174q-138 76 -151 129z" />
    <glyph glyph-name="agrave" unicode="&#xe0;" horiz-adv-x="946" 
d="M394 1092q-113 0 -194 -80q-80 -81 -80 -194h104q0 70 50 120t120 50h158q70 0 120 -50q49 -50 49 -120v-164h-347q-117 0 -194 -65q-80 -69 -80 -179v-136q0 -113 80 -193q81 -81 194 -81h178q95 0 169 79v-79h105v818q0 113 -81 194q-80 80 -193 80h-158zM721 550v-276
q0 -70 -49 -120q-50 -49 -120 -49h-178q-70 0 -120 49q-50 50 -50 120v136q0 67 50 105q46 35 120 35h347zM562 1161h-95l-201 280h131z" />
    <glyph glyph-name="aacute" unicode="&#xe1;" horiz-adv-x="946" 
d="M394 1092q-113 0 -194 -80q-80 -81 -80 -194h104q0 70 50 120t120 50h158q70 0 120 -50q49 -50 49 -120v-164h-347q-117 0 -194 -65q-80 -69 -80 -179v-136q0 -113 80 -193q81 -81 194 -81h178q95 0 169 79v-79h105v818q0 113 -81 194q-80 80 -193 80h-158zM721 550v-276
q0 -70 -49 -120q-50 -49 -120 -49h-178q-70 0 -120 49q-50 50 -50 120v136q0 67 50 105q46 35 120 35h347zM529 1441h131l-201 -280h-95z" />
    <glyph glyph-name="acircumflex" unicode="&#xe2;" horiz-adv-x="946" 
d="M394 1092q-113 0 -194 -80q-80 -81 -80 -194h104q0 70 50 120t120 50h158q70 0 120 -50q49 -50 49 -120v-164h-347q-117 0 -194 -65q-80 -69 -80 -179v-136q0 -113 80 -193q81 -81 194 -81h178q95 0 169 79v-79h105v818q0 113 -81 194q-80 80 -193 80h-158zM721 550v-276
q0 -70 -49 -120q-50 -49 -120 -49h-178q-70 0 -120 49q-50 50 -50 120v136q0 67 50 105q46 35 120 35h347zM700 1174l-172 263h-131l-172 -263h114l124 183l123 -183h114z" />
    <glyph glyph-name="atilde" unicode="&#xe3;" horiz-adv-x="946" 
d="M394 1092q-113 0 -194 -80q-80 -81 -80 -194h104q0 70 50 120t120 50h158q70 0 120 -50q49 -50 49 -120v-164h-347q-117 0 -194 -65q-80 -69 -80 -179v-136q0 -113 80 -193q81 -81 194 -81h178q95 0 169 79v-79h105v818q0 113 -81 194q-80 80 -193 80h-158zM721 550v-276
q0 -70 -49 -120q-50 -49 -120 -49h-178q-70 0 -120 49q-50 50 -50 120v136q0 67 50 105q46 35 120 35h347zM561 1187q-57 0 -95 34q-21 17 -44 47q-16 21 -27 29q-10 10 -31 11q-27 -2 -39 -15q-19 -20 -19 -78h-94q0 100 49 147q39 38 102 38h1q57 0 95 -32q20 -19 42 -49
q11 -14 27 -28q11 -10 33 -10h1q27 1 39 14q20 20 20 79h94q0 -102 -49 -149q-39 -38 -103 -38h-2z" />
    <glyph glyph-name="adieresis" unicode="&#xe4;" horiz-adv-x="946" 
d="M394 1092q-113 0 -194 -80q-80 -81 -80 -194h104q0 70 50 120t120 50h158q70 0 120 -50q49 -50 49 -120v-164h-347q-117 0 -194 -65q-80 -69 -80 -179v-136q0 -113 80 -193q81 -81 194 -81h178q95 0 169 79v-79h105v818q0 113 -81 194q-80 80 -193 80h-158zM721 550v-276
q0 -70 -49 -120q-50 -49 -120 -49h-178q-70 0 -120 49q-50 50 -50 120v136q0 67 50 105q46 35 120 35h347zM229 1260h97v97h-97v-97zM601 1260h97v97h-97v-97z" />
    <glyph glyph-name="aring" unicode="&#xe5;" horiz-adv-x="946" 
d="M394 1092q-113 0 -194 -80q-80 -81 -80 -194h104q0 70 50 120t120 50h158q70 0 120 -50q49 -50 49 -120v-164h-347q-117 0 -194 -65q-80 -69 -80 -179v-136q0 -113 80 -193q81 -81 194 -81h178q95 0 169 79v-79h105v818q0 113 -81 194q-80 80 -193 80h-158zM721 550v-276
q0 -70 -49 -120q-50 -49 -120 -49h-178q-70 0 -120 49q-50 50 -50 120v136q0 67 50 105q46 35 120 35h347zM464 1469q-67 0 -115 -48t-48 -114q0 -67 48 -115t115 -48q66 0 114 48t48 115q0 66 -48 114t-114 48zM524 1367.5q25 -24.5 25 -60.5t-25 -61t-60 -25q-36 0 -61 25
t-25 61t25 60.5t61 24.5q35 0 60 -24.5z" />
    <glyph glyph-name="ae" unicode="&#xe6;" horiz-adv-x="1530" 
d="M721 570v-296q0 -70 -49 -120q-50 -49 -120 -49h-178q-70 0 -120 49q-50 50 -50 120v156q0 67 50 105q46 35 120 35h347zM1342 598h-517v220q0 70 50 120t120 50h178q70 0 120 -50q49 -50 49 -120v-220zM721 674h-347q-117 0 -194 -65q-80 -69 -80 -179v-156
q0 -113 80 -193q81 -81 194 -81h178q95 0 169 59v-59h105v59q73 -59 169 -59h178q113 0 193 81q81 80 81 193h-105q0 -70 -49 -120q-50 -49 -120 -49h-178q-70 0 -120 49q-43 43 -49 101v239h621v324q0 113 -81 194q-80 80 -193 80h-178q-113 0 -194 -80q-15 -16 -28 -32
q-12 16 -28 32q-80 80 -193 80h-178q-113 0 -194 -80q-80 -81 -80 -194h104q0 70 50 120t120 50h178q70 0 120 -50q49 -50 49 -120v-144z" />
    <glyph glyph-name="ccedilla" unicode="&#xe7;" horiz-adv-x="946" 
d="M394 1092q-113 0 -194 -80q-80 -81 -80 -194v-544q0 -113 80 -193q81 -81 194 -81h178q113 0 193 81q81 80 81 193v52h-105v-52q0 -70 -49 -120q-50 -49 -120 -49h-178q-70 0 -120 49q-50 50 -50 120v544q0 70 50 120t120 50h178q70 0 120 -50q49 -50 49 -120v-52h105v52
q0 113 -81 194q-80 80 -193 80h-178zM310 -457q41 -5 96 -5q137 10 192 60t58 121q0 51 -35.5 95t-116.5 62l35 124h-93l-53 -195q51 0 80 -7t54 -24.5t29 -46.5v-4q0 -46 -48 -75q-45 -21 -102 -24q-21 -1 -41 -1h-36z" />
    <glyph glyph-name="egrave" unicode="&#xe8;" 
d="M394 1092q-113 0 -194 -80q-80 -81 -80 -194v-544q0 -113 80 -193q81 -81 194 -81h178q113 0 193 81q81 80 81 193h-105q0 -70 -49 -120q-50 -49 -120 -49h-178q-70 0 -120 49q-50 50 -50 120v220h622v324q0 113 -81 194q-80 80 -193 80h-178zM741 598h-517v220
q0 70 50 120t120 50h178q70 0 120 -50q49 -50 49 -120v-220zM582 1161h-95l-201 280h131z" />
    <glyph glyph-name="eacute" unicode="&#xe9;" 
d="M394 1092q-113 0 -194 -80q-80 -81 -80 -194v-544q0 -113 80 -193q81 -81 194 -81h178q113 0 193 81q81 80 81 193h-105q0 -70 -49 -120q-50 -49 -120 -49h-178q-70 0 -120 49q-50 50 -50 120v220h622v324q0 113 -81 194q-80 80 -193 80h-178zM741 598h-517v220
q0 70 50 120t120 50h178q70 0 120 -50q49 -50 49 -120v-220zM549 1441h131l-201 -280h-95z" />
    <glyph glyph-name="ecircumflex" unicode="&#xea;" 
d="M394 1092q-113 0 -194 -80q-80 -81 -80 -194v-544q0 -113 80 -193q81 -81 194 -81h178q113 0 193 81q81 80 81 193h-105q0 -70 -49 -120q-50 -49 -120 -49h-178q-70 0 -120 49q-50 50 -50 120v220h622v324q0 113 -81 194q-80 80 -193 80h-178zM741 598h-517v220
q0 70 50 120t120 50h178q70 0 120 -50q49 -50 49 -120v-220zM720 1174l-172 263h-131l-172 -263h114l124 183l123 -183h114z" />
    <glyph glyph-name="edieresis" unicode="&#xeb;" 
d="M394 1092q-113 0 -194 -80q-80 -81 -80 -194v-544q0 -113 80 -193q81 -81 194 -81h178q113 0 193 81q81 80 81 193h-105q0 -70 -49 -120q-50 -49 -120 -49h-178q-70 0 -120 49q-50 50 -50 120v220h622v324q0 113 -81 194q-80 80 -193 80h-178zM741 598h-517v220
q0 70 50 120t120 50h178q70 0 120 -50q49 -50 49 -120v-220zM249 1260h97v97h-97v-97zM621 1260h97v97h-97v-97z" />
    <glyph glyph-name="igrave" unicode="&#xec;" horiz-adv-x="404" 
d="M150 0h104v1092h-104v-1092zM301 1161h-95l-201 280h131z" />
    <glyph glyph-name="iacute" unicode="&#xed;" horiz-adv-x="404" 
d="M150 0h104v1092h-104v-1092zM268 1441h131l-201 -280h-95z" />
    <glyph glyph-name="icircumflex" unicode="&#xee;" horiz-adv-x="404" 
d="M150 0h104v1092h-104v-1092zM439 1174l-172 263h-131l-172 -263h114l124 183l123 -183h114z" />
    <glyph glyph-name="idieresis" unicode="&#xef;" horiz-adv-x="404" 
d="M150 0h104v1092h-104v-1092zM-32 1260h97v97h-97v-97zM340 1260h97v97h-97v-97z" />
    <glyph glyph-name="eth" unicode="&#xf0;" horiz-adv-x="1111" 
d="M709 1298q-122 116 -287 164l-50 14l-29 -100l51 -14q113 -33 201 -103l-196 -67l34 -99l247 85q82 -96 132 -234q4 -10 7 -21q-118 87 -269 87q-178 0 -304 -115q-126 -114 -126 -277v-226q0 -162 126 -277t304 -115t304 115t126 277v226q0 8 -1 21q-7 172 -68 338
q-49 135 -127 237l207 71l-34 99zM876 392q0 -119 -96 -204q-95 -84 -230 -84t-230 84q-96 85 -96 204v226q0 119 96 204q95 84 230 84q130 0 224 -79t101 -192l1 -17v-226z" />
    <glyph glyph-name="ntilde" unicode="&#xf1;" 
d="M394 1092q-95 0 -170 -79v79h-104v-1092h104v818q0 70 50 120t120 50h178q70 0 120 -50q49 -50 49 -120v-818h105v818q0 113 -81 194q-80 80 -193 80h-178zM581 1187q-57 0 -95 34q-21 17 -44 47q-16 21 -27 29q-10 10 -31 11q-27 -2 -39 -15q-19 -20 -19 -78h-94
q0 100 49 147q39 38 102 38h1q57 0 95 -32q20 -19 42 -49q11 -14 27 -28q11 -10 33 -10h1q27 1 39 14q20 20 20 79h94q0 -102 -49 -149q-39 -38 -103 -38h-2z" />
    <glyph glyph-name="ograve" unicode="&#xf2;" 
d="M394 1092q-113 0 -194 -80q-80 -81 -80 -194v-544q0 -113 80 -193q81 -81 194 -81h178q113 0 193 81q81 80 81 193v544q0 113 -81 194q-80 80 -193 80h-178zM741 274q0 -70 -49 -120q-50 -49 -120 -49h-178q-70 0 -120 49q-50 50 -50 120v544q0 70 50 120t120 50h178
q70 0 120 -50q49 -50 49 -120v-544zM582 1161h-95l-201 280h131z" />
    <glyph glyph-name="oacute" unicode="&#xf3;" 
d="M394 1092q-113 0 -194 -80q-80 -81 -80 -194v-544q0 -113 80 -193q81 -81 194 -81h178q113 0 193 81q81 80 81 193v544q0 113 -81 194q-80 80 -193 80h-178zM741 274q0 -70 -49 -120q-50 -49 -120 -49h-178q-70 0 -120 49q-50 50 -50 120v544q0 70 50 120t120 50h178
q70 0 120 -50q49 -50 49 -120v-544zM549 1441h131l-201 -280h-95z" />
    <glyph glyph-name="ocircumflex" unicode="&#xf4;" 
d="M394 1092q-113 0 -194 -80q-80 -81 -80 -194v-544q0 -113 80 -193q81 -81 194 -81h178q113 0 193 81q81 80 81 193v544q0 113 -81 194q-80 80 -193 80h-178zM741 274q0 -70 -49 -120q-50 -49 -120 -49h-178q-70 0 -120 49q-50 50 -50 120v544q0 70 50 120t120 50h178
q70 0 120 -50q49 -50 49 -120v-544zM720 1174l-172 263h-131l-172 -263h114l124 183l123 -183h114z" />
    <glyph glyph-name="otilde" unicode="&#xf5;" 
d="M394 1092q-113 0 -194 -80q-80 -81 -80 -194v-544q0 -113 80 -193q81 -81 194 -81h178q113 0 193 81q81 80 81 193v544q0 113 -81 194q-80 80 -193 80h-178zM741 274q0 -70 -49 -120q-50 -49 -120 -49h-178q-70 0 -120 49q-50 50 -50 120v544q0 70 50 120t120 50h178
q70 0 120 -50q49 -50 49 -120v-544zM581 1187q-57 0 -95 34q-21 17 -44 47q-16 21 -27 29q-10 10 -31 11q-27 -2 -39 -15q-19 -20 -19 -78h-94q0 100 49 147q39 38 102 38h1q57 0 95 -32q20 -19 42 -49q11 -14 27 -28q11 -10 33 -10h1q27 1 39 14q20 20 20 79h94
q0 -102 -49 -149q-39 -38 -103 -38h-2z" />
    <glyph glyph-name="odieresis" unicode="&#xf6;" 
d="M394 1092q-113 0 -194 -80q-80 -81 -80 -194v-544q0 -113 80 -193q81 -81 194 -81h178q113 0 193 81q81 80 81 193v544q0 113 -81 194q-80 80 -193 80h-178zM741 274q0 -70 -49 -120q-50 -49 -120 -49h-178q-70 0 -120 49q-50 50 -50 120v544q0 70 50 120t120 50h178
q70 0 120 -50q49 -50 49 -120v-544zM249 1260h97v97h-97v-97zM621 1260h97v97h-97v-97z" />
    <glyph glyph-name="divide" unicode="&#xf7;" horiz-adv-x="1086" 
d="M110 789h847v-99h-847v99zM486 166h114v114h-114v-114zM486 1113h114v114h-114v-114z" />
    <glyph glyph-name="oslash" unicode="&#xf8;" horiz-adv-x="969" 
d="M700 1062q-60 31 -127 31h-177q-114 0 -194 -80q-80 -81 -80 -194v-544q0 -95 59 -170l-61 -113l92 -50l51 94q61 -35 133 -35h177q114 0 194 81q80 80 80 193v544q0 100 -65 177l67 123l-91 50zM226 819q0 70 50 120q49 50 120 50h177q41 0 77 -19l-411 -759
q-13 31 -13 64v544zM743 275q0 -70 -50 -120q-49 -49 -120 -49h-177q-45 0 -84 22l414 764q17 -35 17 -73v-544z" />
    <glyph glyph-name="ugrave" unicode="&#xf9;" 
d="M741 274q0 -70 -49 -120q-50 -49 -120 -49h-178q-70 0 -120 49q-50 50 -50 120v818h-104v-818q0 -113 80 -193q81 -81 194 -81h178q113 0 193 81q81 80 81 193v818h-105v-818zM582 1161h-95l-201 280h131z" />
    <glyph glyph-name="uacute" unicode="&#xfa;" 
d="M741 274q0 -70 -49 -120q-50 -49 -120 -49h-178q-70 0 -120 49q-50 50 -50 120v818h-104v-818q0 -113 80 -193q81 -81 194 -81h178q113 0 193 81q81 80 81 193v818h-105v-818zM549 1441h131l-201 -280h-95z" />
    <glyph glyph-name="ucircumflex" unicode="&#xfb;" 
d="M741 274q0 -70 -49 -120q-50 -49 -120 -49h-178q-70 0 -120 49q-50 50 -50 120v818h-104v-818q0 -113 80 -193q81 -81 194 -81h178q113 0 193 81q81 80 81 193v818h-105v-818zM720 1174l-172 263h-131l-172 -263h114l124 183l123 -183h114z" />
    <glyph glyph-name="udieresis" unicode="&#xfc;" 
d="M741 274q0 -70 -49 -120q-50 -49 -120 -49h-178q-70 0 -120 49q-50 50 -50 120v818h-104v-818q0 -113 80 -193q81 -81 194 -81h178q113 0 193 81q81 80 81 193v818h-105v-818zM249 1260h97v97h-97v-97zM621 1260h97v97h-97v-97z" />
    <glyph glyph-name="yacute" unicode="&#xfd;" horiz-adv-x="814" 
d="M695 1093l-273 -866l-272 866h-109l326 -1040l-63 -203q-21 -67 -84 -100q-61 -30 -129 -11l-50 16l-31 -100l50 -16q40 -12 82 -12q88 0 160 52q74 53 101 140l401 1274h-109zM473 1441h131l-201 -280h-95z" />
    <glyph glyph-name="thorn" unicode="&#xfe;" horiz-adv-x="946" 
d="M741 273q0 -70 -49 -120q-50 -49 -120 -49h-178q-70 0 -120 49q-50 50 -50 120v544q0 70 50 120t120 50h178q70 0 120 -50q49 -50 49 -120v-544zM224 1466h-104v-1841h104v433q75 -59 170 -59h178q113 0 193 81q81 80 81 193v544q0 113 -81 194q-80 80 -193 80h-178
q-95 0 -170 -59v434z" />
    <glyph glyph-name="ydieresis" unicode="&#xff;" horiz-adv-x="814" 
d="M695 1093l-273 -866l-272 866h-109l326 -1040l-63 -203q-21 -67 -84 -100q-61 -30 -129 -11l-50 16l-31 -100l50 -16q40 -12 82 -12q88 0 160 52q74 53 101 140l401 1274h-109zM173 1260h97v97h-97v-97zM545 1260h97v97h-97v-97z" />
    <glyph glyph-name="dotlessi" unicode="&#x131;" horiz-adv-x="404" 
d="M150 0h104v1092h-104v-1092z" />
    <glyph glyph-name="circumflex" unicode="&#x2c6;" horiz-adv-x="717" 
d="M596 1174l-172 263h-131l-172 -263h114l124 183l123 -183h114z" />
    <glyph glyph-name="caron" unicode="&#x2c7;" horiz-adv-x="717" 
d="M482 1437l-123 -183l-124 183h-114l172 -263h131l172 263h-114z" />
    <glyph glyph-name="uni02C9" unicode="&#x2c9;" horiz-adv-x="646" 
d="M50 1344v-104h546v104h-546z" />
    <glyph glyph-name="breve" unicode="&#x2d8;" horiz-adv-x="717" 
d="M492 1337q-133 -113 -267 0h-104q72 -143 237.5 -143t237.5 143h-104z" />
    <glyph glyph-name="dotaccent" unicode="&#x2d9;" horiz-adv-x="297" 
d="M100 1270h97v97h-97v-97z" />
    <glyph glyph-name="ring" unicode="&#x2da;" horiz-adv-x="345" 
d="M173 1469q-67 0 -115 -48t-48 -114q0 -67 48 -115t115 -48q66 0 114 48t48 115q0 66 -48 114t-114 48zM233 1367.5q25 -24.5 25 -60.5t-25 -61t-60 -25q-36 0 -61 25t-25 61t25 60.5t61 24.5q35 0 60 -24.5z" />
    <glyph glyph-name="ogonek" unicode="&#x2db;" horiz-adv-x="358" 
d="M246 -208q-30 -19 -72 -19q-35 4 -50.5 21.5t-16.5 46.5q0 24 15 43q6 9 15 18q36 42 117 98h-104q-74 -58 -106 -89q-26 -28 -28 -64q0 -93 92 -136q32 -15 68 -15h8q38 3 73 26q36 23 56 52l-39 38z" />
    <glyph glyph-name="tilde" unicode="&#x2dc;" horiz-adv-x="543" 
d="M369 1187q-57 0 -95 34q-21 17 -44 47q-16 21 -27 29q-10 10 -31 11q-27 -2 -39 -15q-19 -20 -19 -78h-94q0 100 49 147q39 38 102 38h1q57 0 95 -32q20 -19 42 -49q11 -14 27 -28q11 -10 33 -10h1q27 1 39 14q20 20 20 79h94q0 -102 -49 -149q-39 -38 -103 -38h-2z" />
    <glyph glyph-name="hungarumlaut" unicode="&#x2dd;" horiz-adv-x="1024" 
d="M412 1441h131l-201 -280h-95zM708 1441h131l-201 -280h-95z" />
    <glyph glyph-name="endash" unicode="&#x2013;" horiz-adv-x="737" 
d="M0 599h737v-99h-737v99z" />
    <glyph glyph-name="emdash" unicode="&#x2014;" horiz-adv-x="937" 
d="M0 609h937v-99h-937v99z" />
    <glyph glyph-name="quoteleft" unicode="&#x2018;" horiz-adv-x="311" 
d="M211 1467h-53q-59 -90 -68 -169v-114h114v114h-34q4 76 41 169z" />
    <glyph glyph-name="quoteright" unicode="&#x2019;" horiz-adv-x="311" 
d="M90 1184h53q59 90 68 169v114h-114v-114h34q-4 -76 -41 -169z" />
    <glyph glyph-name="quotesinglbase" unicode="&#x201a;" horiz-adv-x="311" 
d="M90 -141h53q59 90 68 169v114h-114v-114h34q-4 -76 -41 -169z" />
    <glyph glyph-name="quotedblleft" unicode="&#x201c;" horiz-adv-x="480" 
d="M201 1467h-53q-59 -90 -68 -169v-114h114v114h-34q4 76 41 169zM390 1467h-53q-59 -90 -68 -169v-114h114v114h-34q4 76 41 169z" />
    <glyph glyph-name="quotedblright" unicode="&#x201d;" horiz-adv-x="480" 
d="M80 1184h53q59 90 68 169v114h-114v-114h34q-4 -76 -41 -169zM269 1184h53q59 90 68 169v114h-114v-114h34q-4 -76 -41 -169z" />
    <glyph glyph-name="quotedblbase" unicode="&#x201e;" horiz-adv-x="480" 
d="M80 -141h53q59 90 68 169v114h-114v-114h34q-4 -76 -41 -169zM269 -141h53q59 90 68 169v114h-114v-114h34q-4 -76 -41 -169z" />
    <glyph glyph-name="dagger" unicode="&#x2020;" horiz-adv-x="845" 
d="M378 1028h-328v89h328v428h89v-428h328v-89h-328v-1028h-89v1028z" />
    <glyph glyph-name="daggerdbl" unicode="&#x2021;" horiz-adv-x="918" 
d="M378 1048h-328v89h328v408h89v-408h328v-89h-328v-541h328v-89h-328v-418h-89v418h-328v89h328v541z" />
    <glyph glyph-name="bullet" unicode="&#x2022;" horiz-adv-x="833" 
d="M640.5 927.5q92.5 -92.5 92.5 -223.5q0 -132 -92.5 -224.5t-224.5 -92.5q-131 0 -223.5 92.5t-92.5 224.5q0 131 92.5 223.5t223.5 92.5q132 0 224.5 -92.5z" />
    <glyph glyph-name="ellipsis" unicode="&#x2026;" horiz-adv-x="2048" 
d="M100 0h114v114h-114v-114zM783 0h114v114h-114v-114zM1466 0h114v114h-114v-114z" />
    <glyph glyph-name="guilsinglleft" unicode="&#x2039;" horiz-adv-x="635" 
d="M585 103l-429 435l429 434h-148l-427 -434l428 -435h147z" />
    <glyph glyph-name="guilsinglright" unicode="&#x203a;" horiz-adv-x="635" 
d="M197 103l428 435l-427 434h-148l429 -434l-429 -435h147z" />
    <glyph glyph-name="fraction" unicode="&#x2044;" horiz-adv-x="398" 
d="M-430 -4l1111 1548h97l-1101 -1548h-107z" />
    <glyph glyph-name="fraction" unicode="&#x2215;" horiz-adv-x="398" 
d="M-430 -4l1111 1548h97l-1101 -1548h-107z" />
    <glyph glyph-name="franc" unicode="&#x20a3;" horiz-adv-x="1081" 
d="M140 0h104v681h574v105h-574v576h680v104h-784v-1466zM-60 419v-104h536v104h-536z" />
    <glyph glyph-name="lira" unicode="&#x20a4;" horiz-adv-x="1288" 
d="M294 52l8 2q77 22 141 22q83 0 186 -26q188 -48 261 -48q92 0 231 69l47 23l-47 93l-46 -23q-117 -58 -185 -58q-59 0 -235 45q-115 30 -212 30q-13 0 -26 -1q45 64 73 128q46 104 56 201h217v105h-220q-8 71 -35 183h266v104h-291q-31 142 -27 233q4 94 71 161t164 67
q89 0 151 -64q64 -64 73 -182l4 -52l104 8l-4 52q-12 156 -102 247q-93 95 -226 95q-140 0 -237 -97q-97 -96 -102 -231q-4 -98 24 -237h-179v-104h203q29 -116 38 -183h-252v-105h255q-9 -76 -46 -159q-45 -102 -146 -211l-5 -5z" />
    <glyph glyph-name="peseta" unicode="&#x20a7;" horiz-adv-x="2141" 
d="M613 705h-379v657h379q108 0 171 -105q54 -92 54 -223q0 -138 -59 -232q-62 -97 -166 -97zM1078 988v-798q0 -83 18 -121q32 -69 128 -69h578q129 0 206 97q71 88 71 213q0 124 -71 212q-77 97 -206 97h-178q-82 0 -128 58q-41 51 -41 126q0 78 43 130q46 55 126 55h149
q59 0 106 -38q46 -38 59 -95l11 -51l102 22l-11 51q-21 93 -96 154q-60 49 -133 58v3h-629v374h-104v-374h-147q-12 137 -80 239q-89 135 -238 135h-473v-1466h94v601h379q153 0 243 141q66 104 76 246h146zM1351 803q0 -116 69 -198q77 -90 204 -90h178q91 0 137 -74
q35 -56 35 -131q0 -87 -45 -145q-46 -60 -127 -60h-578q-30 0 -36 10q-6 12 -6 75v798h227q-58 -78 -58 -185z" />
    <glyph glyph-name="Euro" unicode="&#x20ac;" horiz-adv-x="1387" 
d="M976 137q-131 -48 -281 -26q-118 18 -195 76q-92 68 -92 174v133h561v104h-561v240h605v104h-605v190q0 156 185 224q137 51 291 24q154 -26 228 -112l33 -40l80 67l-34 40q-100 118 -297 149q-180 28 -337 -30q-121 -44 -187 -129q-66 -84 -66 -193v-190h-184v-104h184
v-240h-184v-104h184v-133q0 -137 101 -232t275 -121q51 -8 104 -8q163 0 288 65q140 73 179 203l16 49l-100 31l-15 -50q-34 -109 -176 -161z" />
    <glyph glyph-name="uni2116" unicode="&#x2116;" horiz-adv-x="1827" 
d="M906 251l-683 1215h-83v-1466h104v1215l684 -1215h83v1466h-105v-1215zM1120 105v-104h646v104h-646zM1394 1010q-113 0 -194 -80q-80 -81 -80 -194v-244q0 -113 80 -193q81 -81 194 -81h98q113 0 193 81q81 80 81 193v244q0 113 -81 194q-80 80 -193 80h-98zM1661 492
q0 -70 -49 -120q-50 -49 -120 -49h-98q-70 0 -120 49q-50 50 -50 120v244q0 70 50 120t120 50h98q70 0 120 -50q49 -50 49 -120v-244z" />
    <glyph glyph-name="trademark" unicode="&#x2122;" horiz-adv-x="1073" 
d="M20 1443.44v-41.6025h170.555v-544.833h47.252v544.833h170.554v41.6025h-388.36zM408.002 1443.44v-586.436h46.8008v454.828l199.806 -454.828h31.9512l199.355 454.828v-454.828h46.8008v586.436h-39.1514l-223.206 -508.031l-222.756 508.031h-39.6006z" />
    <glyph glyph-name="partialdiff" unicode="&#x2202;" horiz-adv-x="977" 
d="M736 671q-11 48 -49 78q-37 30 -86 30h-205q-56 0 -97 -40q-41 -41 -41 -97v-386q0 -56 41 -97t97 -41h205q56 0 97 41t41 97v395zM552 1124q-118 145 -280 154l-44 2l4 88l44 -2q156 -8 278 -117q34 -31 65 -70q102 -126 163 -323q43 -139 45 -241v-359q0 -94 -66 -160
t-160 -66h-205q-94 0 -160 66t-66 160v386q0 93 66 159q66 67 160 67h205q19 0 90 -13q-68 181 -139 269z" />
    <glyph glyph-name="Delta" unicode="&#x2206;" horiz-adv-x="1251" 
d="M95 30l545 1293l546 -1293h-1091zM1075 103l-435 1031l-434 -1031h869z" />
    <glyph glyph-name="product" unicode="&#x220f;" horiz-adv-x="1212" 
d="M1137 1370v-89h-223v-1251h-88v1251h-420v-1251h-88v1251h-223v89h1042z" />
    <glyph glyph-name="summation" unicode="&#x2211;" horiz-adv-x="1318" 
d="M254 1281l817 -581l-817 -581h964v-89h-1098v103l798 567l-798 567v103h1098v-89h-964z" />
    <glyph glyph-name="minus" unicode="&#x2212;" horiz-adv-x="837" 
d="M110 769h617v-69h-617v69z" />
    <glyph glyph-name="radical" unicode="&#x221a;" horiz-adv-x="991" 
d="M540 1646h391v-63h-337l-256 -1553h-81l-164 477l60 20l137 -399z" />
    <glyph glyph-name="infinity" unicode="&#x221e;" horiz-adv-x="2079" 
d="M523 355q-52 0 -103 16q-50 18 -95 51q-45 34 -80 83q-34 49 -54 116q-21 67 -21 151q0 86 21 153q20 66 55 116t81 84q46 33 95 50q51 17 101 17q91 -2 173 -37q85 -39 160 -103q78 -66 141 -147l52 -68l53 68q63 81 141 147q75 64 160 103q81 35 173 37q50 0 100 -17
t95 -50q46 -34 81 -84q35 -48 55 -116q21 -67 22 -153q-1 -86 -22 -153q-20 -67 -54 -115q-36 -51 -82 -83q-44 -33 -95 -49q-51 -17 -100 -17q-93 1 -173 36q-85 37 -160 101q-78 66 -141 147l-53 68l-52 -68q-64 -81 -141 -147q-76 -64 -160 -101q-81 -35 -173 -36z
M519 441q117 0 231 72q108 67 218 210l36 49l-36 49q-57 73 -122 136q-72 65 -149 103q-85 42 -178 43q-80 -1 -143 -43q-66 -41 -102 -117q-37 -74 -37 -171t37 -171q36 -76 102 -118q63 -41 143 -42zM1131 820l-37 -48l37 -49q59 -77 122 -137q70 -65 149 -103
q84 -41 178 -42q80 1 143 42q65 42 102 118q36 74 37 171q-1 101 -39 176t-103 115q-64 40 -140 40q-94 -1 -178 -42q-79 -39 -149 -103q-66 -62 -122 -138z" />
    <glyph glyph-name="integral" unicode="&#x222b;" horiz-adv-x="915" 
d="M618 1440q106 145 295 145h18l-12 -66h-1q-157 0 -244 -113q-58 -75 -71 -163q-34 -198 -103 -602q-69 -400 -103 -601q-14 -99 -79 -187q-106 -145 -295 -145h-18l12 66h1q157 0 244 113q58 75 71 163q35 201 103 601q69 402 103 602q14 99 79 187z" />
    <glyph glyph-name="approxequal" unicode="&#x2248;" horiz-adv-x="1000" 
d="M825 600q-98 -81 -195 -81h-15q-70 4 -179 67q-82 46 -120 46h-4q-57 -3 -129 -67v69q62 66 133 67q55 0 155 -57q97 -55 151 -57h5q86 0 198 87v-74zM825 398q-98 -81 -195 -81h-15q-70 4 -179 67q-82 46 -120 46h-4q-57 -3 -129 -67v69q62 66 133 67q55 0 155 -57
q97 -55 151 -57h5q86 0 198 87v-74z" />
    <glyph glyph-name="lessequal" unicode="&#x2264;" horiz-adv-x="887" 
d="M60 79h767v-69h-767v69zM61 640l763 425v-80l-683 -378l683 -377v-79l-763 423v66z" />
    <glyph glyph-name="greaterequal" unicode="&#x2265;" horiz-adv-x="887" 
d="M827 10h-767v69h767v-69zM826 574l-763 -423v79l683 377l-683 378v80l763 -425v-66z" />
    <glyph glyph-name="uniF001" unicode="&#xf001;" horiz-adv-x="978" 
d="M176 1166v-74h-118v-104h118v-988h105v988h233v104h-233v101q0 70 49 119q50 50 120 50h100v104h-100q-99 0 -174 -63q-101 -80 -100 -237zM724 0h104v1092h-104v-1092zM724 1362h104v104h-104v-104z" />
    <glyph glyph-name="uniF001" unicode="&#xfb01;" horiz-adv-x="978" 
d="M176 1166v-74h-118v-104h118v-988h105v988h233v104h-233v101q0 70 49 119q50 50 120 50h100v104h-100q-99 0 -174 -63q-101 -80 -100 -237zM724 0h104v1092h-104v-1092zM724 1362h104v104h-104v-104z" />
    <glyph glyph-name="uniF002" unicode="&#xf002;" horiz-adv-x="978" 
d="M176 1166v-74h-118v-104h118v-988h105v988h233v104h-233v101q0 70 49 119q50 50 120 50h100v104h-100q-99 0 -174 -63q-101 -80 -100 -237zM724 0h104v1466h-104v-1466z" />
    <glyph glyph-name="uniF002" unicode="&#xfb02;" horiz-adv-x="978" 
d="M176 1166v-74h-118v-104h118v-988h105v988h233v104h-233v101q0 70 49 119q50 50 120 50h100v104h-100q-99 0 -174 -63q-101 -80 -100 -237zM724 0h104v1466h-104v-1466z" />
    <glyph glyph-name="Amacron" unicode="&#x100;" horiz-adv-x="1020" 
d="M471 1466q-75 -237 -225 -717q-180 -571 -236 -749h109l165 524h451l165 -524h110q-64 204 -234 741q-152 484 -228 725h-77zM317 628l193 613l192 -613h-385zM237 1718v-104h546v104h-546z" />
    <glyph glyph-name="amacron" unicode="&#x101;" horiz-adv-x="946" 
d="M394 1092q-113 0 -194 -80q-80 -81 -80 -194h104q0 70 50 120t120 50h158q70 0 120 -50q49 -50 49 -120v-164h-347q-117 0 -194 -65q-80 -69 -80 -179v-136q0 -113 80 -193q81 -81 194 -81h178q95 0 169 79v-79h105v818q0 113 -81 194q-80 80 -193 80h-158zM721 550v-276
q0 -70 -49 -120q-50 -49 -120 -49h-178q-70 0 -120 49q-50 50 -50 120v136q0 67 50 105q46 35 120 35h347zM190 1344v-104h546v104h-546z" />
    <glyph glyph-name="Abreve" unicode="&#x102;" horiz-adv-x="1020" 
d="M471 1466q-75 -237 -225 -717q-180 -571 -236 -749h109l165 524h451l165 -524h110q-64 204 -234 741q-152 484 -228 725h-77zM317 628l193 613l192 -613h-385zM643 1711q-133 -113 -267 0h-104q72 -143 237.5 -143t237.5 143h-104z" />
    <glyph glyph-name="abreve" unicode="&#x103;" horiz-adv-x="946" 
d="M394 1092q-113 0 -194 -80q-80 -81 -80 -194h104q0 70 50 120t120 50h158q70 0 120 -50q49 -50 49 -120v-164h-347q-117 0 -194 -65q-80 -69 -80 -179v-136q0 -113 80 -193q81 -81 194 -81h178q95 0 169 79v-79h105v818q0 113 -81 194q-80 80 -193 80h-158zM721 550v-276
q0 -70 -49 -120q-50 -49 -120 -49h-178q-70 0 -120 49q-50 50 -50 120v136q0 67 50 105q46 35 120 35h347zM596 1337q-133 -113 -267 0h-104q72 -143 237.5 -143t237.5 143h-104z" />
    <glyph glyph-name="Aogonek" unicode="&#x104;" horiz-adv-x="1020" 
d="M471 1466q-75 -237 -225 -717q-180 -571 -236 -749h109l165 524h451l165 -524h110q-64 204 -234 741q-152 484 -228 725h-77zM317 628l193 613l192 -613h-385zM998 -208q-30 -19 -72 -19q-35 4 -50.5 21.5t-16.5 46.5q0 24 15 43q6 9 15 18q36 42 117 98h-104
q-74 -58 -106 -89q-26 -28 -28 -64q0 -93 92 -136q32 -15 68 -15h8q38 3 73 26q36 23 56 52l-39 38z" />
    <glyph glyph-name="aogonek" unicode="&#x105;" horiz-adv-x="946" 
d="M394 1092q-113 0 -194 -80q-80 -81 -80 -194h104q0 70 50 120t120 50h158q70 0 120 -50q49 -50 49 -120v-164h-347q-117 0 -194 -65q-80 -69 -80 -179v-136q0 -113 80 -193q81 -81 194 -81h178q95 0 169 79v-79h105v818q0 113 -81 194q-80 80 -193 80h-158zM721 550v-276
q0 -70 -49 -120q-50 -49 -120 -49h-178q-70 0 -120 49q-50 50 -50 120v136q0 67 50 105q46 35 120 35h347zM817 -208q-30 -19 -72 -19q-35 4 -50.5 21.5t-16.5 46.5q0 24 15 43q6 9 15 18q36 42 117 98h-104q-74 -58 -106 -89q-26 -28 -28 -64q0 -93 92 -136q32 -15 68 -15
h8q38 3 73 26q36 23 56 52l-39 38z" />
    <glyph glyph-name="Cacute" unicode="&#x106;" horiz-adv-x="1181" 
d="M274 1385q-154 -99 -154 -273v-771q0 -174 154 -273q134 -88 327 -88q192 0 327 88q153 99 153 273v52h-104v-52q0 -123 -120 -194q-106 -63 -256 -63q-151 0 -256 63q-121 71 -121 194v771q0 123 121 194q105 63 256 63q159 0 266 -69q110 -71 110 -188v-52h104v52
q0 174 -153 273q-135 88 -327 88q-193 0 -327 -88zM667 1815h131l-201 -280h-95z" />
    <glyph glyph-name="cacute" unicode="&#x107;" horiz-adv-x="946" 
d="M394 1092q-113 0 -194 -80q-80 -81 -80 -194v-544q0 -113 80 -193q81 -81 194 -81h178q113 0 193 81q81 80 81 193v52h-105v-52q0 -70 -49 -120q-50 -49 -120 -49h-178q-70 0 -120 49q-50 50 -50 120v544q0 70 50 120t120 50h178q70 0 120 -50q49 -50 49 -120v-52h105v52
q0 113 -81 194q-80 80 -193 80h-178zM549 1441h131l-201 -280h-95z" />
    <glyph glyph-name="Ccircumflex" unicode="&#x108;" horiz-adv-x="1181" 
d="M274 1385q-154 -99 -154 -273v-771q0 -174 154 -273q134 -88 327 -88q192 0 327 88q153 99 153 273v52h-104v-52q0 -123 -120 -194q-106 -63 -256 -63q-151 0 -256 63q-121 71 -121 194v771q0 123 121 194q105 63 256 63q159 0 266 -69q110 -71 110 -188v-52h104v52
q0 174 -153 273q-135 88 -327 88q-193 0 -327 -88zM838 1548l-172 263h-131l-172 -263h114l124 183l123 -183h114z" />
    <glyph glyph-name="ccircumflex" unicode="&#x109;" horiz-adv-x="946" 
d="M394 1092q-113 0 -194 -80q-80 -81 -80 -194v-544q0 -113 80 -193q81 -81 194 -81h178q113 0 193 81q81 80 81 193v52h-105v-52q0 -70 -49 -120q-50 -49 -120 -49h-178q-70 0 -120 49q-50 50 -50 120v544q0 70 50 120t120 50h178q70 0 120 -50q49 -50 49 -120v-52h105v52
q0 113 -81 194q-80 80 -193 80h-178zM720 1174l-172 263h-131l-172 -263h114l124 183l123 -183h114z" />
    <glyph glyph-name="Cdotaccent" unicode="&#x10a;" horiz-adv-x="1181" 
d="M274 1385q-154 -99 -154 -273v-771q0 -174 154 -273q134 -88 327 -88q192 0 327 88q153 99 153 273v52h-104v-52q0 -123 -120 -194q-106 -63 -256 -63q-151 0 -256 63q-121 71 -121 194v771q0 123 121 194q105 63 256 63q159 0 266 -69q110 -71 110 -188v-52h104v52
q0 174 -153 273q-135 88 -327 88q-193 0 -327 -88zM552 1644h97v97h-97v-97z" />
    <glyph glyph-name="cdotaccent" unicode="&#x10b;" horiz-adv-x="946" 
d="M394 1092q-113 0 -194 -80q-80 -81 -80 -194v-544q0 -113 80 -193q81 -81 194 -81h178q113 0 193 81q81 80 81 193v52h-105v-52q0 -70 -49 -120q-50 -49 -120 -49h-178q-70 0 -120 49q-50 50 -50 120v544q0 70 50 120t120 50h178q70 0 120 -50q49 -50 49 -120v-52h105v52
q0 113 -81 194q-80 80 -193 80h-178zM435 1270h97v97h-97v-97z" />
    <glyph glyph-name="Ccaron" unicode="&#x10c;" horiz-adv-x="1181" 
d="M274 1385q-154 -99 -154 -273v-771q0 -174 154 -273q134 -88 327 -88q192 0 327 88q153 99 153 273v52h-104v-52q0 -123 -120 -194q-106 -63 -256 -63q-151 0 -256 63q-121 71 -121 194v771q0 123 121 194q105 63 256 63q159 0 266 -69q110 -71 110 -188v-52h104v52
q0 174 -153 273q-135 88 -327 88q-193 0 -327 -88zM724 1811l-123 -183l-124 183h-114l172 -263h131l172 263h-114z" />
    <glyph glyph-name="ccaron" unicode="&#x10d;" horiz-adv-x="946" 
d="M394 1092q-113 0 -194 -80q-80 -81 -80 -194v-544q0 -113 80 -193q81 -81 194 -81h178q113 0 193 81q81 80 81 193v52h-105v-52q0 -70 -49 -120q-50 -49 -120 -49h-178q-70 0 -120 49q-50 50 -50 120v544q0 70 50 120t120 50h178q70 0 120 -50q49 -50 49 -120v-52h105v52
q0 113 -81 194q-80 80 -193 80h-178zM606 1437l-123 -183l-124 183h-114l172 -263h131l172 263h-114z" />
    <glyph glyph-name="Dcaron" unicode="&#x10e;" horiz-adv-x="1180" 
d="M140 1466v-1466h476q291 0 397 245q87 201 87 488q0 288 -87 489q-106 244 -397 244h-476zM616 105h-372v1257h372q229 0 308 -200q72 -181 72 -429q0 -265 -79 -447q-79 -181 -301 -181zM643 1811l-123 -183l-124 183h-114l172 -263h131l172 263h-114z" />
    <glyph glyph-name="dcaron" unicode="&#x10f;" horiz-adv-x="1081" 
d="M374 1092q-113 0 -194 -80q-80 -81 -80 -194v-544q0 -113 80 -193q81 -81 194 -81h177q95 0 170 79v-79h104v1466h-104v-453q-75 79 -170 79h-177zM204 818q0 70 50 120t120 50h177q71 0 120 -50q50 -50 50 -120v-544q0 -70 -50 -120q-49 -49 -120 -49h-177
q-70 0 -120 49q-50 50 -50 120v544zM945 1184h53q59 90 68 169v114h-114v-114h34q-4 -76 -41 -169z" />
    <glyph glyph-name="Dcroat" unicode="&#x110;" horiz-adv-x="1292" 
d="M331 1464v-680h-211v-105h211v-679h420q174 0 298 123q123 123 123 297v623q0 174 -123 298q-124 123 -298 123h-420zM1068 420q0 -131 -93 -223q-93 -93 -224 -93h-316v575h224v105h-224v576h316q131 0 224 -93t93 -224v-623z" />
    <glyph glyph-name="dcroat" unicode="&#x111;" horiz-adv-x="969" 
d="M374 1092q-113 0 -194 -80q-80 -81 -80 -194v-544q0 -113 80 -193q81 -81 194 -81h177q95 0 170 59v-59h104v1466h-104v-433q-75 59 -170 59h-177zM204 818q0 70 50 120t120 50h177q71 0 120 -50q50 -50 50 -120v-544q0 -70 -50 -120q-49 -49 -120 -49h-177
q-70 0 -120 49q-50 50 -50 120v544zM469 1309v-104h496v104h-496z" />
    <glyph glyph-name="Emacron" unicode="&#x112;" horiz-adv-x="964" 
d="M140 0h784v105h-680v576h574v105h-574v576h680v104h-784v-1466zM259 1718v-104h546v104h-546z" />
    <glyph glyph-name="emacron" unicode="&#x113;" 
d="M394 1092q-113 0 -194 -80q-80 -81 -80 -194v-544q0 -113 80 -193q81 -81 194 -81h178q113 0 193 81q81 80 81 193h-105q0 -70 -49 -120q-50 -49 -120 -49h-178q-70 0 -120 49q-50 50 -50 120v220h622v324q0 113 -81 194q-80 80 -193 80h-178zM741 598h-517v220
q0 70 50 120t120 50h178q70 0 120 -50q49 -50 49 -120v-220zM210 1344v-104h546v104h-546z" />
    <glyph glyph-name="Ebreve" unicode="&#x114;" horiz-adv-x="964" 
d="M140 0h784v105h-680v576h574v105h-574v576h680v104h-784v-1466zM665 1711q-133 -113 -267 0h-104q72 -143 237.5 -143t237.5 143h-104z" />
    <glyph glyph-name="ebreve" unicode="&#x115;" 
d="M394 1092q-113 0 -194 -80q-80 -81 -80 -194v-544q0 -113 80 -193q81 -81 194 -81h178q113 0 193 81q81 80 81 193h-105q0 -70 -49 -120q-50 -49 -120 -49h-178q-70 0 -120 49q-50 50 -50 120v220h622v324q0 113 -81 194q-80 80 -193 80h-178zM741 598h-517v220
q0 70 50 120t120 50h178q70 0 120 -50q49 -50 49 -120v-220zM616 1337q-133 -113 -267 0h-104q72 -143 237.5 -143t237.5 143h-104z" />
    <glyph glyph-name="Edotaccent" unicode="&#x116;" horiz-adv-x="964" 
d="M140 0h784v105h-680v576h574v105h-574v576h680v104h-784v-1466zM484 1644h97v97h-97v-97z" />
    <glyph glyph-name="edotaccent" unicode="&#x117;" 
d="M394 1092q-113 0 -194 -80q-80 -81 -80 -194v-544q0 -113 80 -193q81 -81 194 -81h178q113 0 193 81q81 80 81 193h-105q0 -70 -49 -120q-50 -49 -120 -49h-178q-70 0 -120 49q-50 50 -50 120v220h622v324q0 113 -81 194q-80 80 -193 80h-178zM741 598h-517v220
q0 70 50 120t120 50h178q70 0 120 -50q49 -50 49 -120v-220zM435 1270h97v97h-97v-97z" />
    <glyph glyph-name="Eogonek" unicode="&#x118;" horiz-adv-x="964" 
d="M140 0h784v105h-680v576h574v105h-574v576h680v104h-784v-1466zM857 -208q-30 -19 -72 -19q-35 4 -50.5 21.5t-16.5 46.5q0 24 15 43q6 9 15 18q36 42 117 98h-104q-74 -58 -106 -89q-26 -28 -28 -64q0 -93 92 -136q32 -15 68 -15h8q38 3 73 26q36 23 56 52l-39 38z" />
    <glyph glyph-name="eogonek" unicode="&#x119;" 
d="M394 1092q-113 0 -194 -80q-80 -81 -80 -194v-544q0 -113 80 -193q81 -81 194 -81h178q113 0 193 81q81 80 81 193h-105q0 -70 -49 -120q-50 -49 -120 -49h-178q-70 0 -120 49q-50 50 -50 120v220h622v324q0 113 -81 194q-80 80 -193 80h-178zM741 598h-517v220
q0 70 50 120t120 50h178q70 0 120 -50q49 -50 49 -120v-220zM741 -142q-30 -19 -72 -19q-35 4 -50.5 21.5t-16.5 46.5q0 24 15 43q6 9 15 18q36 42 117 98h-104q-74 -58 -106 -89q-26 -28 -28 -64q0 -93 92 -136q32 -15 68 -15h8q38 3 73 26q36 23 56 52l-39 38z" />
    <glyph glyph-name="Ecaron" unicode="&#x11a;" horiz-adv-x="964" 
d="M140 0h784v105h-680v576h574v105h-574v576h680v104h-784v-1466zM655 1811l-123 -183l-124 183h-114l172 -263h131l172 263h-114z" />
    <glyph glyph-name="ecaron" unicode="&#x11b;" 
d="M394 1092q-113 0 -194 -80q-80 -81 -80 -194v-544q0 -113 80 -193q81 -81 194 -81h178q113 0 193 81q81 80 81 193h-105q0 -70 -49 -120q-50 -49 -120 -49h-178q-70 0 -120 49q-50 50 -50 120v220h622v324q0 113 -81 194q-80 80 -193 80h-178zM741 598h-517v220
q0 70 50 120t120 50h178q70 0 120 -50q49 -50 49 -120v-220zM606 1437l-123 -183l-124 183h-114l172 -263h131l172 263h-114z" />
    <glyph glyph-name="Gcircumflex" unicode="&#x11c;" horiz-adv-x="1201" 
d="M274 1385q-154 -99 -154 -273v-771q0 -174 154 -273q134 -88 327 -88q192 0 327 88q153 99 153 273v438h-532v-105h428v-333q0 -123 -120 -194q-106 -63 -256 -63q-151 0 -256 63q-121 71 -121 194v771q0 123 121 194q105 63 256 63q159 0 266 -69q110 -71 110 -188v-52
h104v52q0 174 -153 273q-135 88 -327 88q-193 0 -327 -88zM838 1548l-172 263h-131l-172 -263h114l124 183l123 -183h114z" />
    <glyph glyph-name="gcircumflex" unicode="&#x11d;" 
d="M741 1012q-74 79 -169 79h-178q-113 0 -194 -80q-80 -81 -80 -194v-544q0 -113 80 -194q81 -80 194 -80h178q95 0 169 79v-179q0 -70 -49 -120q-50 -50 -120 -50h-178q-70 0 -120 50t-50 120h-104q0 -113 80 -194q81 -80 194 -80h178q113 0 193 80q81 81 81 194v1192
h-105v-79zM394 103q-70 0 -120 50t-50 120v544q0 70 50 120t120 50h178q70 0 120 -50q49 -50 49 -120v-544q0 -70 -49 -120q-50 -50 -120 -50h-178zM720 1174l-172 263h-131l-172 -263h114l124 183l123 -183h114z" />
    <glyph glyph-name="Gbreve" unicode="&#x11e;" horiz-adv-x="1201" 
d="M274 1385q-154 -99 -154 -273v-771q0 -174 154 -273q134 -88 327 -88q192 0 327 88q153 99 153 273v438h-532v-105h428v-333q0 -123 -120 -194q-106 -63 -256 -63q-151 0 -256 63q-121 71 -121 194v771q0 123 121 194q105 63 256 63q159 0 266 -69q110 -71 110 -188v-52
h104v52q0 174 -153 273q-135 88 -327 88q-193 0 -327 -88zM734 1711q-133 -113 -267 0h-104q72 -143 237.5 -143t237.5 143h-104z" />
    <glyph glyph-name="gbreve" unicode="&#x11f;" 
d="M741 1012q-74 79 -169 79h-178q-113 0 -194 -80q-80 -81 -80 -194v-544q0 -113 80 -194q81 -80 194 -80h178q95 0 169 79v-179q0 -70 -49 -120q-50 -50 -120 -50h-178q-70 0 -120 50t-50 120h-104q0 -113 80 -194q81 -80 194 -80h178q113 0 193 80q81 81 81 194v1192
h-105v-79zM394 103q-70 0 -120 50t-50 120v544q0 70 50 120t120 50h178q70 0 120 -50q49 -50 49 -120v-544q0 -70 -49 -120q-50 -50 -120 -50h-178zM616 1337q-133 -113 -267 0h-104q72 -143 237.5 -143t237.5 143h-104z" />
    <glyph glyph-name="Gdotaccent" unicode="&#x120;" horiz-adv-x="1201" 
d="M274 1385q-154 -99 -154 -273v-771q0 -174 154 -273q134 -88 327 -88q192 0 327 88q153 99 153 273v438h-532v-105h428v-333q0 -123 -120 -194q-106 -63 -256 -63q-151 0 -256 63q-121 71 -121 194v771q0 123 121 194q105 63 256 63q159 0 266 -69q110 -71 110 -188v-52
h104v52q0 174 -153 273q-135 88 -327 88q-193 0 -327 -88zM552 1644h97v97h-97v-97z" />
    <glyph glyph-name="gdotaccent" unicode="&#x121;" 
d="M741 1012q-74 79 -169 79h-178q-113 0 -194 -80q-80 -81 -80 -194v-544q0 -113 80 -194q81 -80 194 -80h178q95 0 169 79v-179q0 -70 -49 -120q-50 -50 -120 -50h-178q-70 0 -120 50t-50 120h-104q0 -113 80 -194q81 -80 194 -80h178q113 0 193 80q81 81 81 194v1192
h-105v-79zM394 103q-70 0 -120 50t-50 120v544q0 70 50 120t120 50h178q70 0 120 -50q49 -50 49 -120v-544q0 -70 -49 -120q-50 -50 -120 -50h-178zM435 1270h97v97h-97v-97z" />
    <glyph glyph-name="uni0122" unicode="&#x122;" horiz-adv-x="1201" 
d="M274 1385q-154 -99 -154 -273v-771q0 -174 154 -273q134 -88 327 -88q192 0 327 88q153 99 153 273v438h-532v-105h428v-333q0 -123 -120 -194q-106 -63 -256 -63q-151 0 -256 63q-121 71 -121 194v771q0 123 121 194q105 63 256 63q159 0 266 -69q110 -71 110 -188v-52
h104v52q0 174 -153 273q-135 88 -327 88q-193 0 -327 -88zM459 -308h36q19 0 41 1q64 3 108 24q49 29 49 75v4q-4 29 -29.5 46.5t-58 24.5t-86.5 7v81q75 2 135.5 -13t96 -59t35.5 -95q-4 -71 -58.5 -121t-192.5 -60q-55 0 -95 5z" />
    <glyph glyph-name="uni0123" unicode="&#x123;" 
d="M741 1012q-74 79 -169 79h-178q-113 0 -194 -80q-80 -81 -80 -194v-544q0 -113 80 -194q81 -80 194 -80h178q95 0 169 79v-179q0 -70 -49 -120q-50 -50 -120 -50h-178q-70 0 -120 50t-50 120h-104q0 -113 80 -194q81 -80 194 -80h178q113 0 193 80q81 81 81 194v1192
h-105v-79zM394 103q-70 0 -120 50t-50 120v544q0 70 50 120t120 50h178q70 0 120 -50q49 -50 49 -120v-544q0 -70 -49 -120q-50 -50 -120 -50h-178zM553 1467h-53q-59 -90 -68 -169v-114h114v114h-34q4 76 41 169z" />
    <glyph glyph-name="Hcircumflex" unicode="&#x124;" horiz-adv-x="1182" 
d="M938 786h-694v680h-104v-1466h104v681h694v-681h104v1466h-104v-680zM828 1548l-172 263h-131l-172 -263h114l124 183l123 -183h114z" />
    <glyph glyph-name="hcircumflex" unicode="&#x125;" horiz-adv-x="946" 
d="M394 1092q-95 0 -170 -79v453h-104v-1466h104v818q0 70 50 120t120 50h178q70 0 120 -50q49 -50 49 -120v-818h105v818q0 113 -81 194q-80 80 -193 80h-178zM720 1542l-172 263h-131l-172 -263h114l124 183l123 -183h114z" />
    <glyph glyph-name="Hbar" unicode="&#x126;" horiz-adv-x="1182" 
d="M938 786h-694v680h-104v-1466h104v681h694v-681h104v1466h-104v-680zM-30 1266v-104h1246v104h-1246z" />
    <glyph glyph-name="hbar" unicode="&#x127;" horiz-adv-x="946" 
d="M394 1092q-95 0 -170 -59v433h-104v-1466h104v818q0 70 50 120t120 50h178q70 0 120 -50q49 -50 49 -120v-818h105v818q0 113 -81 194q-80 80 -193 80h-178zM-50 1269v-104h586v104h-586z" />
    <glyph glyph-name="Itilde" unicode="&#x128;" horiz-adv-x="404" 
d="M150 0h104v1466h-104v-1466zM300 1561q-57 0 -95 34q-21 17 -44 47q-16 21 -27 29q-10 10 -31 11q-27 -2 -39 -15q-19 -20 -19 -78h-94q0 100 49 147q39 38 102 38h1q57 0 95 -32q20 -19 42 -49q11 -14 27 -28q11 -10 33 -10h1q27 1 39 14q20 20 20 79h94
q0 -102 -49 -149q-39 -38 -103 -38h-2z" />
    <glyph glyph-name="itilde" unicode="&#x129;" horiz-adv-x="404" 
d="M150 0h104v1092h-104v-1092zM300 1187q-57 0 -95 34q-21 17 -44 47q-16 21 -27 29q-10 10 -31 11q-27 -2 -39 -15q-19 -20 -19 -78h-94q0 100 49 147q39 38 102 38h1q57 0 95 -32q20 -19 42 -49q11 -14 27 -28q11 -10 33 -10h1q27 1 39 14q20 20 20 79h94
q0 -102 -49 -149q-39 -38 -103 -38h-2z" />
    <glyph glyph-name="Imacron" unicode="&#x12a;" horiz-adv-x="404" 
d="M150 0h104v1466h-104v-1466zM-71 1718v-104h546v104h-546z" />
    <glyph glyph-name="imacron" unicode="&#x12b;" horiz-adv-x="404" 
d="M150 0h104v1092h-104v-1092zM-71 1344v-104h546v104h-546z" />
    <glyph glyph-name="Ibreve" unicode="&#x12c;" horiz-adv-x="404" 
d="M150 0h104v1466h-104v-1466zM335 1711q-133 -113 -267 0h-104q72 -143 237.5 -143t237.5 143h-104z" />
    <glyph glyph-name="ibreve" unicode="&#x12d;" horiz-adv-x="404" 
d="M150 0h104v1092h-104v-1092zM335 1337q-133 -113 -267 0h-104q72 -143 237.5 -143t237.5 143h-104z" />
    <glyph glyph-name="Iogonek" unicode="&#x12e;" horiz-adv-x="404" 
d="M150 0h104v1466h-104v-1466zM246 -208q-30 -19 -72 -19q-35 4 -50.5 21.5t-16.5 46.5q0 24 15 43q6 9 15 18q36 42 117 98h-104q-74 -58 -106 -89q-26 -28 -28 -64q0 -93 92 -136q32 -15 68 -15h8q38 3 73 26q36 23 56 52l-39 38z" />
    <glyph glyph-name="iogonek" unicode="&#x12f;" horiz-adv-x="404" 
d="M150 0h104v1092h-104v-1092zM150 1362h104v104h-104v-104zM246 -208q-30 -19 -72 -19q-35 4 -50.5 21.5t-16.5 46.5q0 24 15 43q6 9 15 18q36 42 117 98h-104q-74 -58 -106 -89q-26 -28 -28 -64q0 -93 92 -136q32 -15 68 -15h8q38 3 73 26q36 23 56 52l-39 38z" />
    <glyph glyph-name="Idotaccent" unicode="&#x130;" horiz-adv-x="404" 
d="M150 0h104v1466h-104v-1466zM154 1644h97v97h-97v-97z" />
    <glyph glyph-name="IJ" unicode="&#x132;" horiz-adv-x="1275" 
d="M150 0h104v1466h-104v-1466zM534 68q-115 96 -115 257v52h104v-52q0 -116 84 -182q74 -59 180 -59t180 59q84 66 84 182v1138h104v-1138q0 -161 -115 -257q-105 -88 -253 -88t-253 88z" />
    <glyph glyph-name="ij" unicode="&#x133;" horiz-adv-x="803" 
d="M150 0h104v1092h-104v-1092zM150 1362h104v104h-104v-104zM549 -101q0 -70 -50 -120t-120 -50h-52v-104h52q113 0 194 80q80 81 80 194v1192h-104v-1192zM554 1362h104v104h-104v-104z" />
    <glyph glyph-name="Jcircumflex" unicode="&#x134;" horiz-adv-x="871" 
d="M130 68q-115 96 -115 257v52h104v-52q0 -116 84 -182q74 -59 180 -59t180 59q84 66 84 182v1138h104v-1138q0 -161 -115 -257q-105 -88 -253 -88t-253 88zM934 1548l-172 263h-131l-172 -263h114l124 183l123 -183h114z" />
    <glyph glyph-name="jcircumflex" unicode="&#x135;" horiz-adv-x="416" 
d="M428 1174l-172 263h-131l-173 -263h115l123 183l124 -183h114zM145 -101q0 -70 -50 -120t-120 -50h-52v-104h52q113 0 194 80q80 81 80 194v1192h-104v-1192z" />
    <glyph glyph-name="uni0136" unicode="&#x136;" horiz-adv-x="1034" 
d="M882 1466q-537 -655 -638 -780v780h-104v-1466h104v520l208 257l451 -777h121l-502 864l494 602h-134zM369 -308h36q19 0 41 1q64 3 108 24q49 29 49 75v4q-4 29 -29.5 46.5t-58 24.5t-86.5 7v81q75 2 135.5 -13t96 -59t35.5 -95q-4 -71 -58.5 -121t-192.5 -60
q-55 0 -95 5z" />
    <glyph glyph-name="uni0137" unicode="&#x137;" horiz-adv-x="908" 
d="M745 1092l-501 -490v864h-104v-1466h104v466l183 171l356 -637h125l-402 713l392 379h-153zM339 -308h36q19 0 41 1q64 3 108 24q49 29 49 75v4q-4 29 -29.5 46.5t-58 24.5t-86.5 7v81q75 2 135.5 -13t96 -59t35.5 -95q-4 -71 -58.5 -121t-192.5 -60q-55 0 -95 5z" />
    <glyph glyph-name="kgreenlandic" unicode="&#x138;" horiz-adv-x="908" 
d="M745 1092l-501 -490v489h-104v-1091h104v466l183 171l356 -637h125l-402 713l392 379h-153z" />
    <glyph glyph-name="Lacute" unicode="&#x139;" horiz-adv-x="964" 
d="M244 1466h-104v-1466h804v105h-700v1361zM608 1815h131l-201 -280h-95z" />
    <glyph glyph-name="lacute" unicode="&#x13a;" horiz-adv-x="404" 
d="M150 0h104v1466h-104v-1466zM219 1805h131l-201 -280h-95z" />
    <glyph glyph-name="uni013B" unicode="&#x13b;" horiz-adv-x="964" 
d="M244 1466h-104v-1466h804v105h-700v1361zM392 -308h36q19 0 41 1q64 3 108 24q49 29 49 75v4q-4 29 -29.5 46.5t-58 24.5t-86.5 7v81q75 2 135.5 -13t96 -59t35.5 -95q-4 -71 -58.5 -121t-192.5 -60q-55 0 -95 5z" />
    <glyph glyph-name="uni013C" unicode="&#x13c;" horiz-adv-x="404" 
d="M150 0h104v1466h-104v-1466zM20 -308h36q19 0 41 1q64 3 108 24q49 29 49 75v4q-4 29 -29.5 46.5t-58 24.5t-86.5 7v81q75 2 135.5 -13t96 -59t35.5 -95q-4 -71 -58.5 -121t-192.5 -60q-55 0 -95 5z" />
    <glyph glyph-name="Lcaron" unicode="&#x13d;" horiz-adv-x="964" 
d="M244 1466h-104v-1466h804v105h-700v1361zM777 1184h53q59 90 68 169v114h-114v-114h34q-4 -76 -41 -169z" />
    <glyph glyph-name="lcaron" unicode="&#x13e;" horiz-adv-x="518" 
d="M150 0h104v1466h-104v-1466zM390 1184h53q59 90 68 169v114h-114v-114h34q-4 -76 -41 -169z" />
    <glyph glyph-name="Ldot" unicode="&#x13f;" horiz-adv-x="964" 
d="M244 1466h-104v-1466h804v105h-700v1361zM718 685h97v96h-97v-96z" />
    <glyph glyph-name="ldot" unicode="&#x140;" horiz-adv-x="501" 
d="M150 0h104v1466h-104v-1466zM384 685h97v96h-97v-96z" />
    <glyph glyph-name="Lslash" unicode="&#x141;" horiz-adv-x="964" 
d="M244 1466h-104v-1466h804v105h-700v1361zM486 931l-574 -310v-104l574 310v104z" />
    <glyph glyph-name="lslash" unicode="&#x142;" horiz-adv-x="428" 
d="M150 0h104v1466h-104v-1466zM486 931l-574 -310v-104l574 310v104z" />
    <glyph glyph-name="Nacute" unicode="&#x143;" horiz-adv-x="1151" 
d="M906 251l-683 1215h-83v-1466h104v1215l684 -1215h83v1466h-105v-1215zM642 1815h131l-201 -280h-95z" />
    <glyph glyph-name="nacute" unicode="&#x144;" 
d="M394 1092q-95 0 -170 -79v79h-104v-1092h104v818q0 70 50 120t120 50h178q70 0 120 -50q49 -50 49 -120v-818h105v818q0 113 -81 194q-80 80 -193 80h-178zM549 1441h131l-201 -280h-95z" />
    <glyph glyph-name="uni0145" unicode="&#x145;" horiz-adv-x="1151" 
d="M906 251l-683 1215h-83v-1466h104v1215l684 -1215h83v1466h-105v-1215zM420 -308h36q19 0 41 1q64 3 108 24q49 29 49 75v4q-4 29 -29.5 46.5t-58 24.5t-86.5 7v81q75 2 135.5 -13t96 -59t35.5 -95q-4 -71 -58.5 -121t-192.5 -60q-55 0 -95 5z" />
    <glyph glyph-name="uni0146" unicode="&#x146;" 
d="M394 1092q-95 0 -170 -79v79h-104v-1092h104v818q0 70 50 120t120 50h178q70 0 120 -50q49 -50 49 -120v-818h105v818q0 113 -81 194q-80 80 -193 80h-178zM320 -308h36q19 0 41 1q64 3 108 24q49 29 49 75v4q-4 29 -29.5 46.5t-58 24.5t-86.5 7v81q75 2 135.5 -13
t96 -59t35.5 -95q-4 -71 -58.5 -121t-192.5 -60q-55 0 -95 5z" />
    <glyph glyph-name="Ncaron" unicode="&#x147;" horiz-adv-x="1151" 
d="M906 251l-683 1215h-83v-1466h104v1215l684 -1215h83v1466h-105v-1215zM699 1811l-123 -183l-124 183h-114l172 -263h131l172 263h-114z" />
    <glyph glyph-name="ncaron" unicode="&#x148;" 
d="M394 1092q-95 0 -170 -79v79h-104v-1092h104v818q0 70 50 120t120 50h178q70 0 120 -50q49 -50 49 -120v-818h105v818q0 113 -81 194q-80 80 -193 80h-178zM606 1437l-123 -183l-124 183h-114l172 -263h131l172 263h-114z" />
    <glyph glyph-name="napostrophe" unicode="&#x149;" 
d="M394 1092q-95 0 -170 -79v79h-104v-1092h104v818q0 70 50 120t120 50h178q70 0 120 -50q49 -50 49 -120v-818h105v818q0 113 -81 194q-80 80 -193 80h-178zM5 1184h53q59 90 68 169v114h-114v-114h34q-4 -76 -41 -169z" />
    <glyph glyph-name="Eng" unicode="&#x14a;" horiz-adv-x="1151" 
d="M906 251l-683 1215h-83v-1466h104v1215l684 -1215h83v1466h-105v-1215zM890 -228h53q59 90 68 169v114h-114v-114h34q-4 -76 -41 -169z" />
    <glyph glyph-name="eng" unicode="&#x14b;" 
d="M394 1092q-95 0 -170 -59v59h-104v-1092h104v818q0 70 50 120t120 50h178q70 0 120 -50q49 -50 49 -120v-818h105v818q0 113 -81 194q-80 80 -193 80h-178zM725 -283h53q59 90 68 169v114h-105v-114h25q-4 -76 -41 -169z" />
    <glyph glyph-name="Omacron" unicode="&#x14c;" horiz-adv-x="1201" 
d="M274 1385q-154 -99 -154 -273v-771q0 -174 154 -273q134 -88 327 -88q192 0 327 88q153 99 153 273v771q0 174 -153 273q-135 88 -327 88q-193 0 -327 -88zM977 341q0 -123 -120 -194q-106 -63 -256 -63q-151 0 -256 63q-121 71 -121 194v771q0 123 121 194
q105 63 256 63q150 0 256 -63q120 -71 120 -194v-771zM328 1718v-104h546v104h-546z" />
    <glyph glyph-name="omacron" unicode="&#x14d;" 
d="M394 1092q-113 0 -194 -80q-80 -81 -80 -194v-544q0 -113 80 -193q81 -81 194 -81h178q113 0 193 81q81 80 81 193v544q0 113 -81 194q-80 80 -193 80h-178zM741 274q0 -70 -49 -120q-50 -49 -120 -49h-178q-70 0 -120 49q-50 50 -50 120v544q0 70 50 120t120 50h178
q70 0 120 -50q49 -50 49 -120v-544zM210 1344v-104h546v104h-546z" />
    <glyph glyph-name="Obreve" unicode="&#x14e;" horiz-adv-x="1201" 
d="M274 1385q-154 -99 -154 -273v-771q0 -174 154 -273q134 -88 327 -88q192 0 327 88q153 99 153 273v771q0 174 -153 273q-135 88 -327 88q-193 0 -327 -88zM977 341q0 -123 -120 -194q-106 -63 -256 -63q-151 0 -256 63q-121 71 -121 194v771q0 123 121 194
q105 63 256 63q150 0 256 -63q120 -71 120 -194v-771zM734 1711q-133 -113 -267 0h-104q72 -143 237.5 -143t237.5 143h-104z" />
    <glyph glyph-name="obreve" unicode="&#x14f;" 
d="M394 1092q-113 0 -194 -80q-80 -81 -80 -194v-544q0 -113 80 -193q81 -81 194 -81h178q113 0 193 81q81 80 81 193v544q0 113 -81 194q-80 80 -193 80h-178zM741 274q0 -70 -49 -120q-50 -49 -120 -49h-178q-70 0 -120 49q-50 50 -50 120v544q0 70 50 120t120 50h178
q70 0 120 -50q49 -50 49 -120v-544zM616 1337q-133 -113 -267 0h-104q72 -143 237.5 -143t237.5 143h-104z" />
    <glyph glyph-name="Ohungarumlaut" unicode="&#x150;" horiz-adv-x="1201" 
d="M274 1385q-154 -99 -154 -273v-771q0 -174 154 -273q134 -88 327 -88q192 0 327 88q153 99 153 273v771q0 174 -153 273q-135 88 -327 88q-193 0 -327 -88zM977 341q0 -123 -120 -194q-106 -63 -256 -63q-151 0 -256 63q-121 71 -121 194v771q0 123 121 194
q105 63 256 63q150 0 256 -63q120 -71 120 -194v-771zM470 1815h131l-201 -280h-95zM766 1815h131l-201 -280h-95z" />
    <glyph glyph-name="ohungarumlaut" unicode="&#x151;" 
d="M394 1092q-113 0 -194 -80q-80 -81 -80 -194v-544q0 -113 80 -193q81 -81 194 -81h178q113 0 193 81q81 80 81 193v544q0 113 -81 194q-80 80 -193 80h-178zM741 274q0 -70 -49 -120q-50 -49 -120 -49h-178q-70 0 -120 49q-50 50 -50 120v544q0 70 50 120t120 50h178
q70 0 120 -50q49 -50 49 -120v-544zM352 1441h131l-201 -280h-95zM648 1441h131l-201 -280h-95z" />
    <glyph glyph-name="OE" unicode="&#x152;" horiz-adv-x="1789" 
d="M977 341q0 -123 -120 -194q-106 -63 -256 -63q-151 0 -256 63q-121 71 -121 194v771q0 123 121 194q105 63 256 63q150 0 256 -63q120 -71 120 -194v-771zM976 0h784v105h-680v208q1 14 1 28v340h573v105h-573v326q0 14 -1 28v222h680v104h-784v-117q-22 19 -48 36
q-135 88 -327 88q-193 0 -327 -88q-154 -99 -154 -273v-771q0 -174 154 -273q134 -88 327 -88q192 0 327 88q26 17 48 36v-104z" />
    <glyph glyph-name="oe" unicode="&#x153;" horiz-adv-x="1547" 
d="M741 274q0 -70 -49 -120q-50 -49 -120 -49h-178q-70 0 -120 49q-50 50 -50 120v544q0 70 50 120t120 50h178q70 0 120 -50q49 -50 49 -120v-544zM1362 598h-517v220q0 70 50 120t120 50h178q70 0 120 -50q49 -50 49 -120v-220zM821 81q81 -81 194 -81h178q113 0 193 81
q81 80 81 193h-105q0 -70 -49 -120q-50 -49 -120 -49h-178q-70 0 -120 49q-44 44 -49 105v235h621v324q0 113 -81 194q-80 80 -193 80h-178q-113 0 -194 -80q-15 -16 -28 -32q-12 16 -28 32q-80 80 -193 80h-178q-113 0 -194 -80q-80 -81 -80 -194v-544q0 -113 80 -193
q81 -81 194 -81h178q113 0 193 81q16 15 28 32q13 -17 28 -32z" />
    <glyph glyph-name="Racute" unicode="&#x154;" horiz-adv-x="1127" 
d="M244 737v627h421q120 0 189 -100q61 -88 61 -213q0 -132 -66 -221q-68 -93 -184 -93h-421zM1117 0q-271 531 -384 639q123 24 200 129q86 117 86 283q0 168 -90 286q-99 131 -264 131h-525v-1466h104v631h278q103 0 219 -165q67 -94 258 -468h118zM695 1815h131
l-201 -280h-95z" />
    <glyph glyph-name="racute" unicode="&#x155;" horiz-adv-x="584" 
d="M224 1092h-104v-1092h104v666q0 171 68 247q67 75 220 75h52v104h-52q-191 0 -288 -118v118zM408 1441h131l-201 -280h-95z" />
    <glyph glyph-name="uni0156" unicode="&#x156;" horiz-adv-x="1127" 
d="M244 737v627h421q120 0 189 -100q61 -88 61 -213q0 -132 -66 -221q-68 -93 -184 -93h-421zM1117 0q-271 531 -384 639q123 24 200 129q86 117 86 283q0 168 -90 286q-99 131 -264 131h-525v-1466h104v631h278q103 0 219 -165q67 -94 258 -468h118zM420 -308h36q19 0 41 1
q64 3 108 24q49 29 49 75v4q-4 29 -29.5 46.5t-58 24.5t-86.5 7v81q75 2 135.5 -13t96 -59t35.5 -95q-4 -71 -58.5 -121t-192.5 -60q-55 0 -95 5z" />
    <glyph glyph-name="uni0157" unicode="&#x157;" horiz-adv-x="584" 
d="M224 1092h-104v-1092h104v666q0 171 68 247q67 75 220 75h52v104h-52q-191 0 -288 -118v118zM150 -308h36q19 0 41 1q64 3 108 24q49 29 49 75v4q-4 29 -29.5 46.5t-58 24.5t-86.5 7v81q75 2 135.5 -13t96 -59t35.5 -95q-4 -71 -58.5 -121t-192.5 -60q-55 0 -95 5z" />
    <glyph glyph-name="Rcaron" unicode="&#x158;" horiz-adv-x="1127" 
d="M244 737v627h421q120 0 189 -100q61 -88 61 -213q0 -132 -66 -221q-68 -93 -184 -93h-421zM1117 0q-271 531 -384 639q123 24 200 129q86 117 86 283q0 168 -90 286q-99 131 -264 131h-525v-1466h104v631h278q103 0 219 -165q67 -94 258 -468h118zM752 1811l-123 -183
l-124 183h-114l172 -263h131l172 263h-114z" />
    <glyph glyph-name="rcaron" unicode="&#x159;" horiz-adv-x="584" 
d="M224 1092h-104v-1092h104v666q0 171 68 247q67 75 220 75h52v104h-52q-191 0 -288 -118v118zM465 1437l-123 -183l-124 183h-114l172 -263h131l172 263h-114z" />
    <glyph glyph-name="Sacute" unicode="&#x15a;" horiz-adv-x="1203" 
d="M328 859q-97 57 -92 235q4 134 107 207q66 47 161 63q144 23 277 -27t165 -140l18 -49l98 36l-18 49q-49 135 -224 201q-161 61 -333 33q-163 -27 -257 -125t-98 -245q-7 -247 151 -332q92 -50 319 -57q216 -6 290 -51q105 -64 103 -258q-2 -152 -116 -236
q-97 -71 -244 -78q-153 -8 -278 54q-135 67 -148 178l-5 52l-104 -12l6 -51q17 -149 171 -242q142 -84 328 -84q18 0 35 1q207 10 332 124q125 113 127 293q4 264 -162 354q-96 53 -332 60q-209 7 -277 47zM666 1815h131l-201 -280h-95z" />
    <glyph glyph-name="sacute" unicode="&#x15b;" horiz-adv-x="958" 
d="M403 619q-82 0 -128 58q-41 51 -41 126q0 78 43 130q46 55 126 55h149q59 0 106 -38q46 -38 59 -95l11 -51l102 22l-11 51q-21 93 -96 154q-76 61 -171 61h-149q-129 0 -206 -93q-67 -81 -67 -196q0 -116 69 -198q77 -90 204 -90h178q91 0 137 -74q35 -56 35 -131
q0 -87 -45 -145q-46 -60 -127 -60h-207q-70 0 -120 49q-50 50 -50 120v52h-104v-52q0 -113 80 -193q81 -81 194 -81h207q129 0 206 97q71 88 71 213q0 124 -71 212q-77 97 -206 97h-178zM545 1441h131l-201 -280h-95z" />
    <glyph glyph-name="Scircumflex" unicode="&#x15c;" horiz-adv-x="1203" 
d="M328 859q-97 57 -92 235q4 134 107 207q66 47 161 63q144 23 277 -27t165 -140l18 -49l98 36l-18 49q-49 135 -224 201q-161 61 -333 33q-163 -27 -257 -125t-98 -245q-7 -247 151 -332q92 -50 319 -57q216 -6 290 -51q105 -64 103 -258q-2 -152 -116 -236
q-97 -71 -244 -78q-153 -8 -278 54q-135 67 -148 178l-5 52l-104 -12l6 -51q17 -149 171 -242q142 -84 328 -84q18 0 35 1q207 10 332 124q125 113 127 293q4 264 -162 354q-96 53 -332 60q-209 7 -277 47zM837 1548l-172 263h-131l-172 -263h114l124 183l123 -183h114z" />
    <glyph glyph-name="scircumflex" unicode="&#x15d;" horiz-adv-x="958" 
d="M403 619q-82 0 -128 58q-41 51 -41 126q0 78 43 130q46 55 126 55h149q59 0 106 -38q46 -38 59 -95l11 -51l102 22l-11 51q-21 93 -96 154q-76 61 -171 61h-149q-129 0 -206 -93q-67 -81 -67 -196q0 -116 69 -198q77 -90 204 -90h178q91 0 137 -74q35 -56 35 -131
q0 -87 -45 -145q-46 -60 -127 -60h-207q-70 0 -120 49q-50 50 -50 120v52h-104v-52q0 -113 80 -193q81 -81 194 -81h207q129 0 206 97q71 88 71 213q0 124 -71 212q-77 97 -206 97h-178zM716 1174l-172 263h-131l-172 -263h114l124 183l123 -183h114z" />
    <glyph glyph-name="Scedilla" unicode="&#x15e;" horiz-adv-x="1203" 
d="M328 859q-97 57 -92 235q4 134 107 207q66 47 161 63q144 23 277 -27t165 -140l18 -49l98 36l-18 49q-49 135 -224 201q-161 61 -333 33q-163 -27 -257 -125t-98 -245q-7 -247 151 -332q92 -50 319 -57q216 -6 290 -51q105 -64 103 -258q-2 -152 -116 -236
q-97 -71 -244 -78q-153 -8 -278 54q-135 67 -148 178l-5 52l-104 -12l6 -51q17 -149 171 -242q142 -84 328 -84q18 0 35 1q207 10 332 124q125 113 127 293q4 264 -162 354q-96 53 -332 60q-209 7 -277 47zM426 -457q41 -5 96 -5q137 10 192 60t58 121q0 51 -35.5 95
t-116.5 62l35 124h-93l-53 -195q51 0 80 -7t54 -24.5t29 -46.5v-4q0 -46 -48 -75q-45 -21 -102 -24q-21 -1 -41 -1h-36z" />
    <glyph glyph-name="scedilla" unicode="&#x15f;" horiz-adv-x="958" 
d="M403 619q-82 0 -128 58q-41 51 -41 126q0 78 43 130q46 55 126 55h149q59 0 106 -38q46 -38 59 -95l11 -51l102 22l-11 51q-21 93 -96 154q-76 61 -171 61h-149q-129 0 -206 -93q-67 -81 -67 -196q0 -116 69 -198q77 -90 204 -90h178q91 0 137 -74q35 -56 35 -131
q0 -87 -45 -145q-46 -60 -127 -60h-207q-70 0 -120 49q-50 50 -50 120v52h-104v-52q0 -113 80 -193q81 -81 194 -81h207q129 0 206 97q71 88 71 213q0 124 -71 212q-77 97 -206 97h-178zM306 -457q41 -5 96 -5q137 10 192 60t58 121q0 51 -35.5 95t-116.5 62l35 124h-93
l-53 -195q51 0 80 -7t54 -24.5t29 -46.5v-4q0 -46 -48 -75q-45 -21 -102 -24q-21 -1 -41 -1h-36z" />
    <glyph glyph-name="Scaron" unicode="&#x160;" horiz-adv-x="1203" 
d="M328 859q-97 57 -92 235q4 134 107 207q66 47 161 63q144 23 277 -27t165 -140l18 -49l98 36l-18 49q-49 135 -224 201q-161 61 -333 33q-163 -27 -257 -125t-98 -245q-7 -247 151 -332q92 -50 319 -57q216 -6 290 -51q105 -64 103 -258q-2 -152 -116 -236
q-97 -71 -244 -78q-153 -8 -278 54q-135 67 -148 178l-5 52l-104 -12l6 -51q17 -149 171 -242q142 -84 328 -84q18 0 35 1q207 10 332 124q125 113 127 293q4 264 -162 354q-96 53 -332 60q-209 7 -277 47zM723 1811l-123 -183l-124 183h-114l172 -263h131l172 263h-114z
" />
    <glyph glyph-name="scaron" unicode="&#x161;" horiz-adv-x="958" 
d="M403 619q-82 0 -128 58q-41 51 -41 126q0 78 43 130q46 55 126 55h149q59 0 106 -38q46 -38 59 -95l11 -51l102 22l-11 51q-21 93 -96 154q-76 61 -171 61h-149q-129 0 -206 -93q-67 -81 -67 -196q0 -116 69 -198q77 -90 204 -90h178q91 0 137 -74q35 -56 35 -131
q0 -87 -45 -145q-46 -60 -127 -60h-207q-70 0 -120 49q-50 50 -50 120v52h-104v-52q0 -113 80 -193q81 -81 194 -81h207q129 0 206 97q71 88 71 213q0 124 -71 212q-77 97 -206 97h-178zM602 1437l-123 -183l-124 183h-114l172 -263h131l172 263h-114z" />
    <glyph glyph-name="uni0162" unicode="&#x162;" horiz-adv-x="903" 
d="M20 1466v-104h379v-1362h105v1362h379v104h-863zM270 -457q41 -5 96 -5q137 10 192 60t58 121q0 51 -35.5 95t-116.5 62l35 124h-93l-53 -195q51 0 80 -7t54 -24.5t29 -46.5v-4q0 -46 -48 -75q-45 -21 -102 -24q-21 -1 -41 -1h-36z" />
    <glyph glyph-name="uni0163" unicode="&#x163;" horiz-adv-x="634" 
d="M355 1466h-104v-374h-171v-104h171v-798q0 -83 18 -121q32 -69 128 -69h137v100h-137q-34 0 -38 15q-4 22 -4 74v799h189v104h-189v374zM237 -450q41 -5 96 -5q137 10 192 60t58 121q0 51 -35.5 95t-116.5 62l35 124h-93l-53 -195q51 0 80 -7t54 -24.5t29 -46.5v-4
q0 -46 -48 -75q-45 -21 -102 -24q-21 -1 -41 -1h-36z" />
    <glyph glyph-name="Tcaron" unicode="&#x164;" horiz-adv-x="903" 
d="M20 1466v-104h379v-1362h105v1362h379v104h-863zM575 1811l-123 -183l-124 183h-114l172 -263h131l172 263h-114z" />
    <glyph glyph-name="tcaron" unicode="&#x165;" horiz-adv-x="704" 
d="M355 1466h-104v-374h-171v-104h171v-798q0 -83 18 -121q32 -69 128 -69h137v100h-137q-34 0 -38 15q-4 22 -4 74v799h189v104h-189v374zM550 1184h53q59 90 68 169v114h-114v-114h34q-4 -76 -41 -169z" />
    <glyph glyph-name="Tbar" unicode="&#x166;" horiz-adv-x="905" 
d="M20 1466v-104h379v-1362h105v1362h379v104h-863zM29 785v-104h846v104h-846z" />
    <glyph glyph-name="tbar" unicode="&#x167;" horiz-adv-x="627" 
d="M355 1466h-104v-374h-171v-104h171v-798q0 -83 18 -121q32 -69 128 -69q31 0 81 8l51 7l-15 104l-52 -8q-42 -6 -65 -6q-30 0 -36 10q-6 12 -6 75v798h229v104h-229v374zM79 638v-104h496v104h-496z" />
    <glyph glyph-name="Utilde" unicode="&#x168;" horiz-adv-x="1139" 
d="M915 347q0 -123 -111 -194q-96 -63 -235 -63q-138 0 -234 63q-111 71 -111 194v1118h-104v-1118q0 -168 141 -269q128 -92 308 -92q181 0 309 92q141 101 141 269v1118h-104v-1118zM667 1561q-57 0 -95 34q-21 17 -44 47q-16 21 -27 29q-10 10 -31 11q-27 -2 -39 -15
q-19 -20 -19 -78h-94q0 100 49 147q39 38 102 38h1q57 0 95 -32q20 -19 42 -49q11 -14 27 -28q11 -10 33 -10h1q27 1 39 14q20 20 20 79h94q0 -102 -49 -149q-39 -38 -103 -38h-2z" />
    <glyph glyph-name="utilde" unicode="&#x169;" 
d="M741 274q0 -70 -49 -120q-50 -49 -120 -49h-178q-70 0 -120 49q-50 50 -50 120v818h-104v-818q0 -113 80 -193q81 -81 194 -81h178q113 0 193 81q81 80 81 193v818h-105v-818zM581 1187q-57 0 -95 34q-21 17 -44 47q-16 21 -27 29q-10 10 -31 11q-27 -2 -39 -15
q-19 -20 -19 -78h-94q0 100 49 147q39 38 102 38h1q57 0 95 -32q20 -19 42 -49q11 -14 27 -28q11 -10 33 -10h1q27 1 39 14q20 20 20 79h94q0 -102 -49 -149q-39 -38 -103 -38h-2z" />
    <glyph glyph-name="Umacron" unicode="&#x16a;" horiz-adv-x="1139" 
d="M915 347q0 -123 -111 -194q-96 -63 -235 -63q-138 0 -234 63q-111 71 -111 194v1118h-104v-1118q0 -168 141 -269q128 -92 308 -92q181 0 309 92q141 101 141 269v1118h-104v-1118zM297 1718v-104h546v104h-546z" />
    <glyph glyph-name="umacron" unicode="&#x16b;" 
d="M741 274q0 -70 -49 -120q-50 -49 -120 -49h-178q-70 0 -120 49q-50 50 -50 120v818h-104v-818q0 -113 80 -193q81 -81 194 -81h178q113 0 193 81q81 80 81 193v818h-105v-818zM210 1344v-104h546v104h-546z" />
    <glyph glyph-name="Ubreve" unicode="&#x16c;" horiz-adv-x="1139" 
d="M915 347q0 -123 -111 -194q-96 -63 -235 -63q-138 0 -234 63q-111 71 -111 194v1118h-104v-1118q0 -168 141 -269q128 -92 308 -92q181 0 309 92q141 101 141 269v1118h-104v-1118zM703 1711q-133 -113 -267 0h-104q72 -143 237.5 -143t237.5 143h-104z" />
    <glyph glyph-name="ubreve" unicode="&#x16d;" 
d="M741 274q0 -70 -49 -120q-50 -49 -120 -49h-178q-70 0 -120 49q-50 50 -50 120v818h-104v-818q0 -113 80 -193q81 -81 194 -81h178q113 0 193 81q81 80 81 193v818h-105v-818zM616 1337q-133 -113 -267 0h-104q72 -143 237.5 -143t237.5 143h-104z" />
    <glyph glyph-name="Uring" unicode="&#x16e;" horiz-adv-x="1139" 
d="M915 347q0 -123 -111 -194q-96 -63 -235 -63q-138 0 -234 63q-111 71 -111 194v1118h-104v-1118q0 -168 141 -269q128 -92 308 -92q181 0 309 92q141 101 141 269v1118h-104v-1118zM570 1843q-67 0 -115 -48t-48 -114q0 -67 48 -115t115 -48q66 0 114 48t48 115
q0 66 -48 114t-114 48zM630 1741.5q25 -24.5 25 -60.5t-25 -61t-60 -25q-36 0 -61 25t-25 61t25 60.5t61 24.5q35 0 60 -24.5z" />
    <glyph glyph-name="uring" unicode="&#x16f;" 
d="M741 274q0 -70 -49 -120q-50 -49 -120 -49h-178q-70 0 -120 49q-50 50 -50 120v818h-104v-818q0 -113 80 -193q81 -81 194 -81h178q113 0 193 81q81 80 81 193v818h-105v-818zM484 1469q-67 0 -115 -48t-48 -114q0 -67 48 -115t115 -48q66 0 114 48t48 115q0 66 -48 114
t-114 48zM544 1367.5q25 -24.5 25 -60.5t-25 -61t-60 -25q-36 0 -61 25t-25 61t25 60.5t61 24.5q35 0 60 -24.5z" />
    <glyph glyph-name="Uhungarumlaut" unicode="&#x170;" horiz-adv-x="1139" 
d="M915 347q0 -123 -111 -194q-96 -63 -235 -63q-138 0 -234 63q-111 71 -111 194v1118h-104v-1118q0 -168 141 -269q128 -92 308 -92q181 0 309 92q141 101 141 269v1118h-104v-1118zM439 1815h131l-201 -280h-95zM735 1815h131l-201 -280h-95z" />
    <glyph glyph-name="uhungarumlaut" unicode="&#x171;" 
d="M741 274q0 -70 -49 -120q-50 -49 -120 -49h-178q-70 0 -120 49q-50 50 -50 120v818h-104v-818q0 -113 80 -193q81 -81 194 -81h178q113 0 193 81q81 80 81 193v818h-105v-818zM352 1441h131l-201 -280h-95zM648 1441h131l-201 -280h-95z" />
    <glyph glyph-name="Uogonek" unicode="&#x172;" horiz-adv-x="1139" 
d="M915 347q0 -123 -111 -194q-96 -63 -235 -63q-138 0 -234 63q-111 71 -111 194v1118h-104v-1118q0 -168 141 -269q128 -92 308 -92q181 0 309 92q141 101 141 269v1118h-104v-1118zM815 -163q-30 -19 -72 -19q-35 4 -50.5 21.5t-16.5 46.5q0 24 15 43q6 9 15 18
q36 42 117 98h-104q-74 -58 -106 -89q-26 -28 -28 -64q0 -93 92 -136q32 -15 68 -15h8q38 3 73 26q36 23 56 52l-39 38z" />
    <glyph glyph-name="uogonek" unicode="&#x173;" 
d="M741 274q0 -70 -49 -120q-50 -49 -120 -49h-178q-70 0 -120 49q-50 50 -50 120v818h-104v-818q0 -113 80 -193q81 -81 194 -81h178q113 0 193 81q81 80 81 193v818h-105v-818zM685 -180q-30 -19 -72 -19q-35 4 -50.5 21.5t-16.5 46.5q0 24 15 43q6 9 15 18q36 42 117 98
h-104q-74 -58 -106 -89q-26 -28 -28 -64q0 -93 92 -136q32 -15 68 -15h8q38 3 73 26q36 23 56 52l-39 38z" />
    <glyph glyph-name="Wcircumflex" unicode="&#x174;" horiz-adv-x="1747" 
d="M912 1466h-78l-359 -1227l-356 1227h-109l426 -1466h79l358 1228l358 -1228h78l428 1466h-109l-358 -1227zM1111 1548l-172 263h-131l-172 -263h114l124 183l123 -183h114z" />
    <glyph glyph-name="wcircumflex" unicode="&#x175;" horiz-adv-x="1340" 
d="M636 1012l-271 -786l-247 866h-108l310 -1092h77l273 792l274 -792h76l310 1092h-108l-246 -866l-271 786h-69zM907 1174l-172 263h-131l-172 -263h114l124 183l123 -183h114z" />
    <glyph glyph-name="Ycircumflex" unicode="&#x176;" horiz-adv-x="986" 
d="M860 1466l-370 -730l-364 730h-116l428 -859v-607h104v607l434 859h-116zM730 1548l-172 263h-131l-172 -263h114l124 183l123 -183h114z" />
    <glyph glyph-name="ycircumflex" unicode="&#x177;" horiz-adv-x="814" 
d="M695 1093l-273 -866l-272 866h-109l326 -1040l-63 -203q-21 -67 -84 -100q-61 -30 -129 -11l-50 16l-31 -100l50 -16q40 -12 82 -12q88 0 160 52q74 53 101 140l401 1274h-109zM644 1174l-172 263h-131l-172 -263h114l124 183l123 -183h114z" />
    <glyph glyph-name="Ydieresis" unicode="&#x178;" horiz-adv-x="986" 
d="M860 1466l-370 -730l-364 730h-116l428 -859v-607h104v607l434 859h-116zM259 1634h97v97h-97v-97zM631 1634h97v97h-97v-97z" />
    <glyph glyph-name="Zacute" unicode="&#x179;" horiz-adv-x="1023" 
d="M68 0h890v105h-755l760 1303v58h-903v-104h756l-748 -1281v-81zM578 1815h131l-201 -280h-95z" />
    <glyph glyph-name="zacute" unicode="&#x17a;" horiz-adv-x="825" 
d="M40 0h715v105h-579l578 919v68h-695v-104h549l-568 -904v-84zM464 1441h131l-201 -280h-95z" />
    <glyph glyph-name="Zdotaccent" unicode="&#x17b;" horiz-adv-x="1023" 
d="M68 0h890v105h-755l760 1303v58h-903v-104h756l-748 -1281v-81zM463 1644h97v97h-97v-97z" />
    <glyph glyph-name="zdotaccent" unicode="&#x17c;" horiz-adv-x="825" 
d="M40 0h715v105h-579l578 919v68h-695v-104h549l-568 -904v-84zM349 1270h97v97h-97v-97z" />
    <glyph glyph-name="Zcaron" unicode="&#x17d;" horiz-adv-x="1023" 
d="M68 0h890v105h-755l760 1303v58h-903v-104h756l-748 -1281v-81zM635 1811l-123 -183l-124 183h-114l172 -263h131l172 263h-114z" />
    <glyph glyph-name="zcaron" unicode="&#x17e;" horiz-adv-x="825" 
d="M40 0h715v105h-579l578 919v68h-695v-104h549l-568 -904v-84zM521 1437l-123 -183l-124 183h-114l172 -263h131l172 263h-114z" />
    <glyph glyph-name="longs" unicode="&#x17f;" horiz-adv-x="574" 
d="M176 1189v-1189h105v1193q0 70 49 119q50 50 120 50h100v104h-100q-99 0 -174 -63q-89 -72 -100 -214z" />
    <glyph glyph-name="_1" horiz-adv-x="348" 
d="M20 -308h36q19 0 41 1q64 3 108 24q49 29 49 75v4q-4 29 -29.5 46.5t-58 24.5t-86.5 7v81q75 2 135.5 -13t96 -59t35.5 -95q-4 -71 -58.5 -121t-192.5 -60q-55 0 -95 5z" />
    <glyph glyph-name="Atilde" unicode="&#xc3;" horiz-adv-x="1020" 
d="M471 1466q-75 -237 -225 -717q-180 -571 -236 -749h109l165 524h451l165 -524h110q-64 204 -234 741q-152 484 -228 725h-77zM317 628l193 613l192 -613h-385zM608 1561q-57 0 -95 34q-21 17 -44 47q-16 21 -27 29q-10 10 -31 11q-27 -2 -39 -15q-19 -20 -19 -78h-94
q0 100 49 147q39 38 102 38h1q57 0 95 -32q20 -19 42 -49q11 -14 27 -28q11 -10 33 -10h1q27 1 39 14q20 20 20 79h94q0 -102 -49 -149q-39 -38 -103 -38h-2z" />
    </font>
</defs>
</svg>
