<?xml version="1.0" standalone="no"?>
<!DOCTYPE svg PUBLIC "-//W3C//DTD SVG 1.1//EN" "http://www.w3.org/Graphics/SVG/1.1/DTD/svg11.dtd" >
<svg xmlns="http://www.w3.org/2000/svg" xmlns:xlink="http://www.w3.org/1999/xlink" version="1.1">
<metadata>
Created by FontForge 20161003 at Wed Aug  8 20:07:48 2018
 By www-data
Typeface (c) StudioTypo. 2015. All Rights Reserved
</metadata>
<defs>
<font id="EarlyTimes-Bold" horiz-adv-x="1037" >
  <font-face 
    font-family="Early Times"
    font-weight="700"
    font-stretch="normal"
    units-per-em="2048"
    panose-1="2 0 5 0 0 0 0 0 0 0"
    ascent="1638"
    descent="-410"
    x-height="1139"
    cap-height="1490"
    bbox="-390 -501 2289 1872"
    underline-thickness="150"
    underline-position="-292"
    unicode-range="U+001D-F002"
  />
<missing-glyph horiz-adv-x="340" 
 />
    <glyph glyph-name=".notdef" horiz-adv-x="340" 
 />
    <glyph glyph-name=".null" horiz-adv-x="340" 
 />
    <glyph glyph-name=".null" horiz-adv-x="340" 
 />
    <glyph glyph-name="nonmarkingreturn" horiz-adv-x="340" 
 />
    <glyph glyph-name="space" unicode=" " horiz-adv-x="594" 
 />
    <glyph glyph-name="space" unicode="&#xa0;" horiz-adv-x="594" 
 />
    <glyph glyph-name="exclam" unicode="!" horiz-adv-x="515" 
d="M365 1490h-215v-570l40 -570h135l40 570v570zM365 215h-215v-215h215v215z" />
    <glyph glyph-name="quotedbl" unicode="&#x22;" horiz-adv-x="819" 
d="M335 1490h-215v-267l40 -266h135l40 266v267zM699 1490h-215v-266l40 -267h135l40 267v266z" />
    <glyph glyph-name="numbersign" unicode="#" horiz-adv-x="1562" 
d="M660 618l46 219h194l-47 -219h-193zM627 1490l-95 -438h-362v-215h317l-47 -219h-270v-214h224l-85 -404h219l86 404h193l-87 -404h220l87 404h365v214h-319l46 219h273v215h-227l93 438h-220l-93 -438h-193l96 438h-221z" />
    <glyph glyph-name="dollar" unicode="$" horiz-adv-x="1391" 
d="M801 875v395q132 -35 159 -109l202 74q-75 206 -361 255v191h-215v-188q-11 -2 -9 -2q-173 -28 -276 -136q-102 -108 -107 -266q-7 -268 174 -366q82 -44 218 -54v-460q-84 19 -140 60q-57 43 -62 94l-214 -24q20 -180 209 -282q93 -49 207 -67v-188h215v188
q150 23 256 105q158 125 160 337q4 281 -183 385q-88 48 -233 58zM586 1274v-389q-105 9 -141 47q-39 41 -36 151q4 153 177 191zM801 659q116 -10 158 -52q45 -47 44 -173q-2 -178 -202 -225v450z" />
    <glyph glyph-name="percent" unicode="%" horiz-adv-x="1394" 
d="M541 1003q0 -85 -65 -145q-64 -60 -156 -60q-91 0 -155 60q-65 60 -65 145v260q0 85 65 146q64 60 155 60q92 0 156 -60q65 -61 65 -146v-260zM252 1003q0 -21 20 -37q21 -16 48 -16q28 0 48 16q21 16 21 37v260q0 22 -21 38q-20 16 -48 16q-27 0 -48 -16
q-20 -16 -20 -38v-260zM1074 667q91 0 155 -60q65 -61 65 -146v-260q0 -85 -65 -145q-64 -60 -155 -60t-156 60t-65 145v260q0 85 65 146q65 60 156 60zM1142 461q0 22 -20 38q-21 16 -48 16q-28 0 -48 -16q-21 -16 -21 -38v-260q0 -21 21 -37q20 -16 48 -16q27 0 48 16
q20 16 20 37v260zM378 0l447 1490h188l-446 -1490h-189z" />
    <glyph glyph-name="ampersand" unicode="&#x26;" horiz-adv-x="1260" 
d="M1075 369v314h-215v-164q-221 226 -310 327l-62 72q-103 126 -103 179v70q0 65 84 101q69 30 153 30q85 0 154 -30q84 -36 84 -101v-107h215v107q0 150 -128 248t-325 98q-196 0 -324 -98t-128 -248v-70q0 -118 122 -277q-122 -96 -122 -244v-207q0 -172 159 -270
q123 -75 293 -75q171 0 294 75q15 10 31 22q32 -33 63 -64l74 -77l155 149l-75 77q-44 46 -96 99q7 32 7 64zM469 268q-84 37 -84 101v207q0 47 47 80q90 -98 349 -364q9 -10 14 -14q-72 -39 -173 -39q-84 0 -153 29z" />
    <glyph glyph-name="quotesingle" unicode="'" horiz-adv-x="515" 
d="M365 1490h-215v-267l40 -266h135l40 266v267z" />
    <glyph glyph-name="parenleft" unicode="(" horiz-adv-x="706" 
d="M443 1490q-273 -475 -273 -944t272 -944h164q-221 484 -221 944q0 459 221 944h-163z" />
    <glyph glyph-name="parenright" unicode=")" horiz-adv-x="706" 
d="M100 1490q221 -485 221 -944q0 -460 -220 -944h163q272 475 272 944t-272 944h-164z" />
    <glyph glyph-name="asterisk" unicode="*" horiz-adv-x="1160" 
d="M687 1264v226h-215v-226l-242 70l-60 -206l225 -66l-137 -170l167 -135l155 192l155 -192l167 135l-137 170l225 66l-61 206z" />
    <glyph glyph-name="plus" unicode="+" horiz-adv-x="1110" 
d="M662 1215h-215v-375h-347v-215h347v-375h215v375h348v215h-348v375z" />
    <glyph glyph-name="comma" unicode="," horiz-adv-x="442" 
d="M335 0q-25 -156 -109 -239h-115q63 132 68 239h-79v234h235v-234z" />
    <glyph glyph-name="hyphen" unicode="-" horiz-adv-x="960" 
d="M100 840v-215h760v215h-760z" />
    <glyph glyph-name="hyphen" unicode="&#xad;" horiz-adv-x="960" 
d="M100 840v-215h760v215h-760z" />
    <glyph glyph-name="period" unicode="." horiz-adv-x="435" 
d="M335 234v-234h-235v234h235z" />
    <glyph glyph-name="slash" unicode="/" horiz-adv-x="801" 
d="M210 0l581 1490h-201l-580 -1490h200z" />
    <glyph glyph-name="zero" unicode="0" horiz-adv-x="1245" 
d="M303 1376q-133 -132 -133 -319v-624q0 -187 133 -320q132 -133 319 -133q188 0 320 133q133 133 133 320v624q0 187 -133 319q-132 133 -320 133q-187 0 -319 -133zM860 433q0 -99 -70 -168q-69 -70 -168 -70q-98 0 -167 70q-70 69 -70 168v624q0 98 70 168q69 69 167 69
q99 0 168 -69q70 -70 70 -168v-624z" />
    <glyph glyph-name="one" unicode="1" horiz-adv-x="804" 
d="M380 1490l-361 -249l122 -176l163 112v-1177h215v1490h-139z" />
    <glyph glyph-name="two" unicode="2" horiz-adv-x="1245" 
d="M312 1390q-142 -110 -142 -291h215q0 92 86 139q65 36 152 36q86 0 151 -36q86 -47 86 -139v-36q0 -66 -70 -129q-51 -46 -192 -131q-202 -121 -286 -207q-142 -148 -142 -344v-252h898v215h-683v37q0 112 86 199q63 64 237 168q178 106 248 176q119 119 119 268v36
q0 181 -142 291q-128 99 -310 99q-183 0 -311 -99z" />
    <glyph glyph-name="three" unicode="3" horiz-adv-x="1261" 
d="M964 790q122 118 122 297q0 176 -117 293q-130 129 -346 129q-171 0 -294 -75q-159 -98 -159 -270h215q0 64 84 101q69 29 154 29q121 0 189 -62q60 -54 60 -145q0 -88 -57 -142q-67 -65 -192 -65h-137v-215h137q123 0 192 -71q61 -62 61 -164t-60 -164q-68 -71 -193 -71
q-85 0 -154 30q-84 36 -84 100h-215q0 -172 159 -270q123 -75 294 -75q216 0 348 137q120 125 120 313q0 212 -149 340q12 10 22 20z" />
    <glyph glyph-name="four" unicode="4" horiz-adv-x="1340" 
d="M379 488l378 549v-549h-378zM116 273h641v-273h215v273h198v215h-198v1001h-164l-692 -1004v-212z" />
    <glyph glyph-name="five" unicode="5" horiz-adv-x="1321" 
d="M457 997v278h635v215h-850v-719l210 -33q10 33 94 63q95 35 193 20q222 -35 221 -318q0 -119 -53 -202q-69 -109 -204 -112q-108 -2 -192 37q-77 35 -101 86l-46 97l-194 -92l46 -98q53 -110 184 -177q131 -68 293 -67h14q217 4 349 166q118 147 119 362q1 224 -106 362
t-297 168q-163 25 -315 -36z" />
    <glyph glyph-name="six" unicode="6" horiz-adv-x="1275" 
d="M376 891q5 227 92 341q68 79 186 82q201 -15 280 -205l174 101q-43 149 -206 245q-111 54 -248 54q-203 -3 -321 -119q-124 -117 -150 -339q-20 -212 -18.5 -328.5t12.5 -244.5l14 -114q28 -123 101 -213q135 -170 363 -170h3q222 1 355 165q121 149 120 369
q-1 219 -122 367q-134 164 -357 164q-178 0 -278 -155zM655 196q-124 0 -195 89q-61 76 -69 200v40q4 122 58 202q71 104 205 104q139 0 210 -111q54 -84 54 -206t-53 -206q-70 -111 -208 -112h-2z" />
    <glyph glyph-name="seven" unicode="7" horiz-adv-x="1220" 
d="M550 0q86 751 551 1317v175h-981v-215h678q-402 -541 -466 -1277h218z" />
    <glyph glyph-name="eight" unicode="8" horiz-adv-x="1167" 
d="M999 1086q0 162 -106 277q-118 126 -313 126q-194 0 -312 -126q-107 -114 -107 -277q0 -190 166 -286q-217 -130 -217 -351q0 -181 119 -308q132 -141 351 -141q222 0 355 137q122 125 122 306q0 223 -223 357q165 103 165 286zM580 1274q104 0 159 -61q46 -52 46 -127
q0 -78 -49 -130q-55 -58 -156 -58q-104 0 -159 61q-45 51 -45 127q0 78 49 130q54 58 155 58zM580 215q-124 0 -194 73q-61 65 -61 161t61 161q69 73 194 73q126 0 199 -77q63 -67 63 -163q0 -94 -61 -156q-70 -72 -201 -72z" />
    <glyph glyph-name="nine" unicode="9" horiz-adv-x="1303" 
d="M921 598q-5 -226 -92 -340q-68 -79 -186 -82q-201 15 -280 205l-174 -101q43 -149 206 -246q111 -53 248 -53q203 3 321 119q124 117 150 339q20 212 18.5 328.5t-12.5 244.5l-14 114q-28 122 -101 213q-135 170 -363 170h-3q-222 -1 -355 -166q-120 -148 -120 -368
q1 -220 122 -368q135 -163 357 -163q178 0 278 154zM642 1294q124 0 195 -89q61 -76 69 -201v-39q-3 -122 -58 -202q-70 -104 -205 -104q-139 0 -210 110q-54 85 -54 207t53 206q70 111 208 112h2z" />
    <glyph glyph-name="colon" unicode=":" horiz-adv-x="435" 
d="M335 234v-234h-235v234h235zM335 1139v-234h-235v234h235z" />
    <glyph glyph-name="semicolon" unicode=";" horiz-adv-x="435" 
d="M335 0q-25 -156 -109 -239h-115q63 132 68 239h-79v234h235v-234zM335 1139v-234h-235v234h235z" />
    <glyph glyph-name="semicolon" unicode="&#x37e;" horiz-adv-x="435" 
d="M335 0q-25 -156 -109 -239h-115q63 132 68 239h-79v234h235v-234zM335 1139v-234h-235v234h235z" />
    <glyph glyph-name="less" unicode="&#x3c;" horiz-adv-x="845" 
d="M100 615l645 -410v253l-428 266l428 276v254l-645 -421v-218z" />
    <glyph glyph-name="equal" unicode="=" horiz-adv-x="960" 
d="M100 1040v-215h760v215h-760zM100 640v-215h760v215h-760z" />
    <glyph glyph-name="greater" unicode="&#x3e;" horiz-adv-x="845" 
d="M745 833l-645 421v-254l428 -276l-428 -266v-253l645 410v218z" />
    <glyph glyph-name="question" unicode="?" horiz-adv-x="1159" 
d="M622 1510q-196 0 -324 -98t-128 -248v-107h215v107q0 65 84 101q69 30 153 30q85 0 154 -30q84 -36 84 -101v-161q0 -44 -21 -63q-21 -18 -104 -46q-132 -44 -193 -97q-108 -95 -108 -270v-127h215v127q0 76 33 107q26 25 121 57q119 39 174 86q98 81 98 226v161
q0 173 -159 270q-123 76 -294 76zM658 234v-234h-235v234h235z" />
    <glyph glyph-name="at" unicode="@" horiz-adv-x="1631" 
d="M816 1473q279 0 477 -216t198 -521q0 -102 -31 -221q-8 -27 -17 -51q-76 -193 -267 -201q-18 0 -36 3q-86 13 -136 85q-61 -43 -133 -43h-165q-99 0 -170 75q-70 76 -70 182q0 107 70 182q71 76 170 76h165q71 0 85 9q3 5 3 17h-1l1 75v4q0 52 -30 83q-22 22 -58 22h-165
q-36 0 -62 -31q-26 -30 -26 -74h-152q0 106 70 182q71 75 170 75h165q100 0 167 -68q43 -44 61 -107q13 -67 13 -133q0 -13 -1 -26v-338q0 -89 53 -97q7 -1 14 -1q29 0 59 19q41 24 58 67l4 11l16 49q24 86 24 175q0 242 -153 414q-154 171 -370 171q-217 0 -370 -171
q-154 -172 -154 -414t154 -413q153 -171 370 -171q73 0 145 22l72 23l46 -145l-72 -23q-94 -29 -191 -29q-280 0 -478 216t-198 520q0 305 198 521t478 216zM871 460q36 0 62 31t26 74v111q-34 -5 -88 -5h-165q-36 0 -62 -32q-26 -31 -26 -74t26 -74t62 -31h165z" />
    <glyph glyph-name="A" unicode="A" horiz-adv-x="1228" 
d="M439 613q131 384 175 561q43 -177 174 -561h-349zM1227 0l-511 1491h-204l-511 -1491h227l138 398h496l138 -398h227z" />
    <glyph glyph-name="B" unicode="B" horiz-adv-x="1286" 
d="M1134 1078q0 166 -98 283q-108 129 -388 129h-478v-1490h505q287 0 397 147q92 122 92 293q0 256 -187 345q157 91 157 293zM385 1285h263q205 0 248 -91q23 -49 23 -116q0 -96 -46 -152q-45 -56 -125 -56h-363v415zM675 205h-290v470h390q92 0 139 -81q36 -62 36 -154
q0 -109 -49 -174q-46 -61 -226 -61z" />
    <glyph glyph-name="C" unicode="C" horiz-adv-x="1331" 
d="M679 1510q-195 0 -334 -90q-175 -112 -175 -307v-742q0 -195 175 -307q139 -90 334 -90q194 0 334 90q175 112 175 307v108h-215v-128q0 -90 -103 -141q-83 -41 -191 -41t-191 41q-103 51 -103 141v782q0 91 103 141q83 41 191 41t191 -41q103 -50 103 -141v-128h215v108
q0 195 -175 307q-140 90 -334 90z" />
    <glyph glyph-name="D" unicode="D" horiz-adv-x="1286" 
d="M170 1490v-1490h506q303 0 418 233q101 206 101 512t-101 512q-115 233 -418 233h-506zM676 195h-291v1100h291q184 0 244 -155q60 -156 60 -395q0 -257 -69 -416q-59 -134 -235 -134z" />
    <glyph glyph-name="E" unicode="E" horiz-adv-x="1090" 
d="M170 0h852v195h-637v453h537v195h-537v452h637v195h-852v-1490z" />
    <glyph glyph-name="F" unicode="F" horiz-adv-x="1053" 
d="M170 0h215v648h537v195h-537v452h637v195h-852v-1490z" />
    <glyph glyph-name="G" unicode="G" horiz-adv-x="1345" 
d="M870 1273q103 -50 103 -141h215q0 175 -175 287q-140 90 -334 90q-195 0 -334 -90q-175 -112 -175 -307v-742q0 -195 175 -307q139 -90 334 -90q194 0 334 90q175 112 175 307v351q0 45 -32 76q-31 32 -76 32h-401v-195h294v-284q0 -90 -103 -141q-83 -41 -191 -41
t-191 41q-103 51 -103 141v782q0 91 103 141q83 41 191 41t191 -41z" />
    <glyph glyph-name="H" unicode="H" horiz-adv-x="1302" 
d="M917 843h-532v647h-215v-1490h215v648h532v-648h215v1490h-215v-647z" />
    <glyph glyph-name="I" unicode="I" horiz-adv-x="615" 
d="M200 0h215v1490h-215v-1490z" />
    <glyph glyph-name="J" unicode="J" horiz-adv-x="984" 
d="M599 342q0 -103 -85 -144q-45 -23 -98 -23q-52 0 -98 23q-84 41 -84 144v128h-215v-108q0 -178 125 -285q112 -97 272 -97t273 97q125 107 125 285v1126h-215v-1146z" />
    <glyph glyph-name="K" unicode="K" horiz-adv-x="1166" 
d="M889 1490l-504 -624v623h-215v-1490h215v525l128 158l398 -682h249l-503 861l508 629h-276z" />
    <glyph glyph-name="L" unicode="L" horiz-adv-x="1088" 
d="M385 1490h-215v-1490h870v215h-655v1275z" />
    <glyph glyph-name="M" unicode="M" horiz-adv-x="1550" 
d="M1380 0v1490h-181q-318 -816 -424 -1258q-106 442 -424 1258h-181v-1490h215v971q79 -363 316 -971h148q237 608 316 970v-970h215z" />
    <glyph glyph-name="N" unicode="N" horiz-adv-x="1273" 
d="M170 1490v-1489h215v1063q137 -333 548 -1064h170v1491h-215v-1053q-137 323 -547 1052h-171z" />
    <glyph glyph-name="O" unicode="O" horiz-adv-x="1358" 
d="M679 1510q-195 0 -334 -90q-175 -112 -175 -307v-742q0 -195 175 -307q139 -90 334 -90q194 0 334 90q175 112 175 307v742q0 195 -175 307q-140 90 -334 90zM973 351q0 -90 -103 -141q-83 -41 -191 -41t-191 41q-103 51 -103 141v782q0 91 103 141q83 41 191 41t191 -41
q103 -50 103 -141v-782z" />
    <glyph glyph-name="P" unicode="P" horiz-adv-x="1233" 
d="M170 1490v-1490h215v562h335q190 0 301 157q91 128 91 307q0 187 -99 319q-110 145 -293 145h-550zM720 757h-335v538h335q93 0 141 -92q36 -69 36 -177q0 -130 -51 -203q-47 -66 -126 -66z" />
    <glyph glyph-name="Q" unicode="Q" horiz-adv-x="1260" 
d="M646 169q-62 51 -103 54h-7q-37 0 -77 -21q69 -33 170 -33h17zM356 278q101 70 182 70q8 0 16 -1q100 -8 244 -146l22 9q103 51 103 141v782q0 91 -103 141q-83 41 -191 41t-191 -41q-103 -50 -103 -141v-782q0 -40 21 -73zM1229 143l47 -113q-147 -84 -271 -84
q-154 -2 -224 40q-52 -12 -152 -12q-195 0 -334 90q-175 112 -175 307v742q0 195 175 307q139 90 334 90q194 0 334 -90q175 -112 175 -307v-742q0 -195 -158 -298q96 -17 249 70z" />
    <glyph glyph-name="R" unicode="R" horiz-adv-x="1237" 
d="M385 796v500h335q93 0 140 -85q36 -64 36 -170q0 -114 -50 -182q-47 -63 -126 -63h-335zM1232 0l-140 280q-122 245 -205 349q78 39 132 113q91 125 91 299q0 181 -99 309q-109 141 -291 141h-550v-1490h215v600h202q110 0 313 -417l89 -184h243z" />
    <glyph glyph-name="S" unicode="S" horiz-adv-x="1291" 
d="M648 890q-182 6 -231 35q-62 37 -58 169q4 174 201 206q112 18 220 -18q89 -34 130 -110l202 74q-60 143 -236 220q-167 66 -350 36q-172 -28 -275 -136t-107 -266q-7 -268 174 -366q96 -52 323 -59q191 -5 244 -38q69 -43 68 -202q-2 -153 -118 -214q-70 -37 -164 -42
q-127 -7 -228 43t-109 132l-214 -24q20 -180 209 -282q140 -75 316 -75q18 0 36 1q195 10 326 112q158 125 160 347q4 291 -184 395q-101 55 -335 62z" />
    <glyph glyph-name="T" unicode="T" horiz-adv-x="1065" 
d="M70 1490v-195h355v-1295h215v1295h355v195h-925z" />
    <glyph glyph-name="U" unicode="U" horiz-adv-x="1299" 
d="M914 352q0 -95 -98 -145q-73 -37 -166 -37q-94 0 -167 37q-98 50 -98 145v1136h-215v-1116q0 -185 150 -296q137 -101 330 -101q192 0 329 101q150 111 150 296v1116h-215v-1136z" />
    <glyph glyph-name="V" unicode="V" horiz-adv-x="1012" 
d="M571 0l436 1490h-224q-208 -712 -278 -999q-69 287 -276 999h-224l434 -1490h132z" />
    <glyph glyph-name="W" unicode="W" horiz-adv-x="1760" 
d="M1320 0l435 1490h-224q-209 -717 -279 -1006q-70 289 -279 1006h-187q-209 -717 -279 -1006q-69 289 -278 1006h-224l434 -1490h136q228 782 304 1102q77 -320 305 -1102h136z" />
    <glyph glyph-name="X" unicode="X" horiz-adv-x="1149" 
d="M1128 0l-428 735l439 755h-249q-236 -406 -314 -602q-79 196 -317 602h-249l442 -755l-430 -735h249q228 392 305 572q76 -180 303 -572h249z" />
    <glyph glyph-name="Y" unicode="Y" horiz-adv-x="1373" 
d="M990 1490q-228 -458 -304 -671q-77 213 -306 671h-240l439 -877v-613h215v613l436 877h-240z" />
    <glyph glyph-name="Z" unicode="Z" horiz-adv-x="1105" 
d="M85 0h924v215h-665l658 1128v147h-892v-215h604l-629 -1078v-197z" />
    <glyph glyph-name="bracketleft" unicode="[" horiz-adv-x="822" 
d="M170 -400h482v185h-267v1519h267v185h-482v-1889z" />
    <glyph glyph-name="backslash" unicode="\" horiz-adv-x="801" 
d="M791 0l-580 1490h-201l581 -1490h200z" />
    <glyph glyph-name="bracketright" unicode="]" horiz-adv-x="822" 
d="M652 1489h-482v-185h267v-1519h-267v-185h482v1889z" />
    <glyph glyph-name="asciicircum" unicode="^" horiz-adv-x="1211" 
d="M1111 841l-427 650h-158l-426 -650h257l248 379l249 -379h257z" />
    <glyph glyph-name="underscore" unicode="_" horiz-adv-x="940" 
d="M-10 -2v-175h960v175h-960z" />
    <glyph glyph-name="grave" unicode="`" horiz-adv-x="682" 
d="M457 1231h-205l-221 290h241z" />
    <glyph glyph-name="a" unicode="a" horiz-adv-x="1017" 
d="M682 295q0 -42 -29 -71q-30 -29 -71 -29h-167q-41 0 -70 29q-30 30 -30 71v136q0 41 29 71q30 29 71 29h167q41 0 71 -29q29 -30 29 -71v-136zM415 1139q-130 0 -222 -92q-93 -92 -93 -223h210q5 62 34 91q30 30 71 30h167q41 0 71 -30q29 -29 29 -71v-177
q-82 59 -183 59h-84q-130 0 -223 -92q-92 -93 -92 -223v-96q0 -130 92 -223q93 -92 223 -92h84q101 0 183 59v-59h215v824q0 131 -93 223q-92 92 -222 92h-167z" />
    <glyph glyph-name="b" unicode="b" horiz-adv-x="1017" 
d="M518 1139q-101 0 -183 -59v410h-215v-1490h215v59q82 -59 183 -59h84q130 0 222 92q93 93 93 223v509q0 131 -93 223q-92 92 -222 92h-84zM702 295q0 -42 -29 -71q-30 -29 -71 -29h-167q-41 0 -70 29q-30 30 -30 71v549q0 41 30 71q29 30 70 30h167q41 0 71 -30
q29 -29 29 -71v-549z" />
    <glyph glyph-name="c" unicode="c" horiz-adv-x="1017" 
d="M435 1139q-130 0 -223 -92q-92 -92 -92 -223v-509q0 -130 92 -223q93 -92 223 -92h167q130 0 222 92q93 93 93 223v107h-215v-127q0 -41 -30 -71q-30 -29 -70 -29h-167q-41 0 -71 29q-29 29 -29 71v549q0 42 29 71q30 30 71 30h167q40 0 70 -30t30 -71v-127h215v107
q0 131 -93 223q-92 92 -222 92h-167z" />
    <glyph glyph-name="d" unicode="d" horiz-adv-x="1017" 
d="M682 1080q-82 59 -183 59h-84q-130 0 -223 -92q-92 -92 -92 -223v-509q0 -130 92 -223q93 -92 223 -92h84q101 0 183 59v-59h215v1490h-215v-410zM682 295q0 -41 -30 -71q-30 -29 -70 -29h-167q-41 0 -71 29q-29 29 -29 71v549q0 42 29 71q30 30 71 30h167q40 0 70 -30
t30 -71v-549z" />
    <glyph glyph-name="e" unicode="e" horiz-adv-x="997" 
d="M415 1139q-130 0 -223 -92q-92 -92 -92 -223v-509q0 -130 92 -223q93 -92 223 -92h167q130 0 222 92q93 93 93 223h-215q0 -61 -30 -91q-30 -29 -70 -29h-167q-41 0 -70 29q-30 30 -30 71v167h474q45 0 76 32q32 31 32 76v254q0 131 -93 223q-92 92 -222 92h-167z
M682 677h-367v167q0 41 30 71q29 30 70 30h167q40 0 70 -30t30 -71v-167z" />
    <glyph glyph-name="f" unicode="f" horiz-adv-x="742" 
d="M231 1129h-111v-194h111v-935h215v935h265v194h-265v66q0 42 29 71t71 29h191v195h-191q-130 0 -223 -92q-92 -93 -92 -223v-46z" />
    <glyph glyph-name="g" unicode="g" 
d="M702 1079q-82 59 -183 59h-84q-130 0 -223 -92q-92 -92 -92 -223v-448q0 -131 92 -223q93 -92 223 -92h84q101 0 183 59v-156q0 -41 -29 -71q-30 -29 -71 -29h-167q-41 0 -71 29q-29 30 -29 71h-215q0 -130 92 -222q93 -93 223 -93h167q130 0 222 93q93 92 93 222v1175
h-215v-59zM702 355q0 -41 -30 -71q-30 -29 -70 -29h-167q-41 0 -71 29q-29 29 -29 71v488q0 42 29 71q30 30 71 30h167q40 0 70 -30t30 -71v-488z" />
    <glyph glyph-name="h" unicode="h" horiz-adv-x="1057" 
d="M518 1139q-101 0 -183 -59v410h-215v-1489h83v-1h132v844q0 42 29 71q30 30 71 30h167q40 0 70 -30t30 -71v-844h215v824q0 131 -93 223q-92 92 -222 92h-84z" />
    <glyph glyph-name="i" unicode="i" horiz-adv-x="515" 
d="M150 0h215v1139h-215v-1139zM150 1275h215v215h-215v-215z" />
    <glyph glyph-name="j" unicode="j" horiz-adv-x="582" 
d="M218 -57q0 -41 -30 -71q-29 -29 -71 -29h-107v-195h107q131 0 223 93q92 92 92 222v1175h-214v-1195zM217 1275h215v215h-215v-215z" />
    <glyph glyph-name="k" unicode="k" horiz-adv-x="1047" 
d="M723 1139l-388 -371v721h-215v-1490h215v472l108 103l351 -574h252l-443 726l430 413h-310z" />
    <glyph glyph-name="l" unicode="l" horiz-adv-x="535" 
d="M160 0h215v1490h-215v-1490z" />
    <glyph glyph-name="m" unicode="m" horiz-adv-x="1536" 
d="M975 1139q-118 0 -207 -78q-89 78 -208 78h-42q-101 0 -183 -59v59h-215v-1138h83v-1h132v844q0 42 29 71q30 30 71 30h125q41 0 71 -30q29 -30 29 -71v-844h215v844q0 42 30 71q29 30 70 30h126q40 0 70 -30t30 -71v-844h215v824q0 131 -93 223q-92 92 -222 92h-126z
" />
    <glyph glyph-name="n" unicode="n" 
d="M518 1139q-101 0 -183 -59v59h-215v-1138h83v-1h132v844q0 41 30 71q29 30 70 30h167q41 0 71 -30q29 -29 29 -71v-844h215v824q0 131 -93 223q-92 92 -222 92h-84z" />
    <glyph glyph-name="o" unicode="o" 
d="M435 1139q-130 0 -223 -92q-92 -92 -92 -223v-509q0 -130 92 -223q93 -92 223 -92h167q130 0 222 92q93 93 93 223v509q0 131 -93 223q-92 92 -222 92h-167zM702 295q0 -41 -30 -71q-30 -29 -70 -29h-167q-41 0 -71 29q-29 29 -29 71v549q0 42 29 71q30 30 71 30h167
q40 0 70 -30t30 -71v-549z" />
    <glyph glyph-name="p" unicode="p" 
d="M518 1138q-101 0 -183 -59v59h-215v-1490h215v410q82 -59 183 -59h84q130 0 222 92q93 93 93 223v509q0 131 -93 223q-92 92 -222 92h-84zM702 294q0 -42 -29 -71q-30 -29 -71 -29h-167q-41 0 -70 29q-30 30 -30 71v549q0 41 30 71q29 30 70 30h167q41 0 71 -30
q29 -29 29 -71v-549z" />
    <glyph glyph-name="q" unicode="q" 
d="M435 1138q-130 0 -223 -92q-92 -92 -92 -223v-509q0 -130 92 -223q93 -92 223 -92h84q101 0 183 59v-410h215v1490h-215v-59q-82 59 -183 59h-84zM335 843q0 42 29 71q30 30 71 30h167q40 0 70 -30t30 -71v-549q0 -41 -30 -71q-30 -29 -70 -29h-167q-41 0 -71 29
q-29 29 -29 71v549z" />
    <glyph glyph-name="r" unicode="r" horiz-adv-x="810" 
d="M385 1139h-215v-1139h215v702q0 138 45 190q46 53 166 53h190v194h-107q-186 0 -294 -94v94z" />
    <glyph glyph-name="s" unicode="s" horiz-adv-x="925" 
d="M413 676q-61 0 -86 50q-14 29 -14 104q0 52 27 84q25 31 73 31h97q35 0 63 -23q27 -22 35 -76l210 46q-24 108 -111 177q-87 70 -197 70h-97q-149 0 -239 -107q-76 -93 -76 -222q0 -132 80 -225q88 -103 235 -103h125q63 0 88 -62q14 -33 14 -72q0 -81 -30 -120
q-26 -33 -72 -33h-153q-41 0 -71 29q-29 29 -29 91h-215q0 -130 92 -223q93 -92 223 -92h153q152 0 242 117q75 97 75 231q0 140 -80 219q-89 109 -237 109h-125z" />
    <glyph glyph-name="t" unicode="t" horiz-adv-x="690" 
d="M425 1490h-215v-361h-160v-194h160v-699q0 -93 22 -139q47 -97 174 -97h217v195h-198v740h215v194h-215v361z" />
    <glyph glyph-name="u" unicode="u" 
d="M702 295q0 -42 -29 -71q-30 -29 -71 -29h-167q-41 0 -70 29q-30 30 -30 71v844h-215v-824q0 -130 92 -223q93 -92 223 -92h167q130 0 222 92q93 93 93 223v824h-215v-844z" />
    <glyph glyph-name="v" unicode="v" horiz-adv-x="942" 
d="M707 1139q-174 -562 -233 -809q-59 247 -238 809h-226l361 -1139h205l356 1139h-225z" />
    <glyph glyph-name="w" unicode="w" horiz-adv-x="1452" 
d="M1219 1139q-158 -559 -211 -806q-45 190 -179 807h-204q-135 -617 -179 -807q-53 247 -212 806h-224l324 -1139h204l165 510l24 164l24 -164l165 -510h205l321 1139h-223z" />
    <glyph glyph-name="x" unicode="x" horiz-adv-x="991" 
d="M981 0l-358 571l357 568h-253q-173 -275 -231 -417q-57 142 -231 417h-253l357 -568l-359 -571h254q174 277 232 419q58 -142 231 -419h254z" />
    <glyph glyph-name="y" unicode="y" horiz-adv-x="900" 
d="M665 1139q-147 -466 -196 -682q-49 216 -196 682h-224l308 -981l-54 -202q-13 -39 -50 -59q-31 -15 -76 -7l-107 24l-60 -166l102 -33q47 -14 95 -14q102 0 185 60q84 61 116 161l97 308l-1 1l286 908h-225z" />
    <glyph glyph-name="z" unicode="z" horiz-adv-x="937" 
d="M850 1139h-780v-194h515l-498 -780v-165h780v195h-515l498 780v164z" />
    <glyph glyph-name="braceleft" unicode="{" horiz-adv-x="695" 
d="M266 997q0 -65 5 -154q3 -61 1 -73q-12 -21 -98 -90l-4 -220q91 -80 102 -104q3 -7 -1 -83q-5 -93 -5 -160q0 -43 -2 -113q-4 -210 51 -279q58 -74 266 -74h59v186h-34q-98 0 -128 3q0 22 1 78q2 153 2 199q0 58 4 142q8 154 -25 229q-18 41 -70 80q50 34 68 72
q35 73 27 224q-4 81 -4 137q0 123 -3 209q-1 58 -1 80q35 4 163 4v199q-158 0 -209 -10q-76 -15 -118 -69q-55 -71 -49 -280q2 -82 2 -133z" />
    <glyph glyph-name="bar" unicode="|" horiz-adv-x="555" 
d="M170 -360h215v1849h-215v-1849z" />
    <glyph glyph-name="braceright" unicode="}" horiz-adv-x="695" 
d="M547 1130q5 209 -50 280q-42 54 -118 69q-51 10 -209 10v-199q128 0 163 -4q0 -22 -1 -80q-3 -86 -3 -209q0 -56 -4 -137q-8 -151 27 -224q18 -38 68 -72q-52 -39 -70 -80q-33 -75 -25 -229q4 -84 4 -142q0 -46 2 -199q1 -56 1 -78q-30 -3 -128 -3h-34v-186h59
q208 0 266 74q55 69 51 279q-2 70 -2 113q0 67 -5 160q-4 76 -1 83q11 24 102 104l-3 220q-87 69 -99 90q-2 12 1 73q5 89 5 154q0 51 3 133z" />
    <glyph glyph-name="asciitilde" unicode="~" horiz-adv-x="1495" 
d="M907 1131q-52 0 -162 70q-171 109 -284 84q-127 -29 -234 -202l-57 -92l183 -113l56 91q60 97 100 106q25 6 121 -55q150 -96 255 -104q185 -14 366 177l74 78l-156 148l-74 -78q-106 -112 -188 -110z" />
    <glyph glyph-name="exclamdown" unicode="&#xa1;" horiz-adv-x="515" 
d="M150 -351h215v570l-40 570h-135l-40 -570v-570zM150 924h215v215h-215v-215z" />
    <glyph glyph-name="cent" unicode="&#xa2;" horiz-adv-x="1247" 
d="M1053 774q-42 182 -221 274l36 159l-209 48l-36 -155l-7 1q-184 0 -315 -121t-131 -292v-203q0 -115 64 -212q62 -95 166 -149l-36 -158l210 -48l35 155h7q157 0 281 92q123 92 156 235l-210 48q-14 -60 -65 -103q-50 -43 -119 -54l122 535q49 -43 62 -101zM385 688
q0 71 54 126t134 68l-122 -534q-66 58 -66 137v203z" />
    <glyph glyph-name="sterling" unicode="&#xa3;" horiz-adv-x="1294" 
d="M432 194q176 179 181 465h214v195h-258q-39 168 -36 263q3 85 50 132q45 45 112 45q59 0 100 -42q44 -45 51 -154l214 17q-13 166 -112 268q-104 106 -253 106q-156 0 -263 -108q-107 -106 -114 -256q-4 -108 30 -271h-178v-195h226q38 -231 -217 -483l109 -176
q64 19 115 19q71 0 237 -19.5t241 -19.5q100 0 243 71l-96 172q-97 -88 -596 -29z" />
    <glyph glyph-name="currency" unicode="&#xa4;" horiz-adv-x="1482" 
d="M995 1188q-126 84 -277 84t-277 -84l-127 128l-144 -154l124 -125q-81 -127 -81 -279t81 -279l-124 -125l144 -154l127 128q126 -84 277 -84t277 84l127 -128l144 154l-124 125q81 127 81 279t-81 279l124 125l-144 154zM507 969q87 88 211 88t211 -88q88 -87 88 -211
t-88 -211q-87 -88 -211 -88t-211 88q-88 87 -88 211t88 211z" />
    <glyph glyph-name="yen" unicode="&#xa5;" horiz-adv-x="1324" 
d="M1066 1490l-404 -619l-404 619h-257l463 -708h-186v-215h277v-106h-277v-215h277v-246h215v246h276v215h-276v106h276v215h-185l462 708h-257z" />
    <glyph glyph-name="brokenbar" unicode="&#xa6;" horiz-adv-x="555" 
d="M170 671.203h215v795.056h-215v-795.056zM170 -374.797h215v795.056h-215v-795.056z" />
    <glyph glyph-name="section" unicode="&#xa7;" horiz-adv-x="1176" 
d="M445 1067q-38 28 -38 94q0 64 51 105q50 40 130 40q127 0 183 -84l179 120q-120 179 -362 179q-169 0 -282 -103q-114 -103 -114 -257q0 -144 83 -230q-83 -97 -83 -225q0 -176 126 -265q71 -52 232 -92q141 -35 183 -69q58 -47 58 -159q0 -94 -60 -160q-59 -66 -143 -66
t-144 66q-59 66 -59 160h-215q0 -183 123 -312q122 -129 295 -129t295 129q123 129 123 312q0 139 -56 233q56 103 56 221q0 221 -142 330q-81 62 -262 107q-123 31 -157 55zM475 823q27 -7 75 -19q141 -35 183 -70q58 -46 58 -159q0 -38 -12 -74q-60 28 -178 57
q-122 30 -156 55q-38 27 -38 93q0 76 68 117z" />
    <glyph glyph-name="dieresis" unicode="&#xa8;" horiz-adv-x="805" 
d="M100 1275h215v215h-215v-215zM490 1275h215v215h-215v-215z" />
    <glyph glyph-name="copyright" unicode="&#xa9;" horiz-adv-x="1489" 
d="M552 1127q-85 -64 -85 -171v-448q0 -107 85 -172q77 -58 185 -58q109 0 186 58q84 65 84 172v52h-104v-52q0 -61 -53 -95q-46 -31 -113 -31q-66 0 -113 31q-53 34 -53 95v448q0 60 53 95q47 30 113 30q67 0 113 -30q53 -35 53 -95v-53h104v53q0 107 -84 171
q-77 58 -186 58q-108 0 -185 -58zM272 1230q-152 -205 -152 -498q0 -294 152 -499q172 -233 465 -233q310 0 482 212q150 185 150 517q0 298 -167 487q-182 248 -465 248q-293 0 -465 -234zM737 104q-247 0 -388 200q-125 176 -125 428q0 259 131 436q142 192 382 192
q236 0 388 -215q140 -159 140 -416q0 -295 -127 -451q-141 -174 -401 -174z" />
    <glyph glyph-name="guillemotleft" unicode="&#xab;" horiz-adv-x="1366" 
d="M801 153l-399 406l400 407h-301l-401 -407l399 -406h302zM1319 153l-399 406l400 407h-301l-401 -407l399 -406h302z" />
    <glyph glyph-name="logicalnot" unicode="&#xac;" horiz-adv-x="340" 
 />
    <glyph glyph-name="registered" unicode="&#xae;" horiz-adv-x="1474" 
d="M1044 957q0 229 -271 229h-270v-909h105v403h114v-1l21 1l227 -421l92 49l-207 383q82 22 132 75q57 59 57 146v45zM760 785h-152v297h165q110 0 146 -41q20 -24 20 -84v-45q0 -104 -136 -125l-9 16zM271 1230q-151 -205 -151 -498q0 -294 151 -499q173 -233 466 -233
t466 233q151 205 151 499q0 293 -151 498q-173 234 -466 234t-466 -234zM737 104q-247 0 -388 200q-125 176 -125 428q0 259 131 436q142 192 382 192q247 0 389 -201q124 -176 124 -427q0 -259 -131 -437q-141 -191 -382 -191z" />
    <glyph glyph-name="macron" unicode="&#xaf;" horiz-adv-x="700" 
d="M100 1434v-175h500v175h-500z" />
    <glyph glyph-name="plusminus" unicode="&#xb1;" horiz-adv-x="1110" 
d="M662 1255h-215v-375h-347v-215h347v-375h215v375h348v215h-348v375zM100 215v-215h900v215h-900z" />
    <glyph glyph-name="acute" unicode="&#xb4;" horiz-adv-x="682" 
d="M417 1521h241l-221 -290h-205z" />
    <glyph glyph-name="mu" unicode="&#xb5;" horiz-adv-x="1280" 
d="M895 709q0 -129 -75 -224q-76 -95 -180 -95t-179 95q-76 95 -76 224v431h-215v-1489h215v610q116 -85 255 -85t255 85v-186h215v1065h-215v-431z" />
    <glyph glyph-name="paragraph" unicode="&#xb6;" horiz-adv-x="1337" 
d="M911 0h145v1274h111v215h-508q-215 -62 -351 -202q-138 -143 -138 -324t138 -323q136 -140 351 -185v-455h151v1276h101v-1276z" />
    <glyph glyph-name="periodcentered" unicode="&#xb7;" horiz-adv-x="594" 
d="M299.742 844.895v-198.895h-199.744v198.895h199.744z" />
    <glyph glyph-name="periodcentered" unicode="&#x2219;" horiz-adv-x="594" 
d="M299.742 844.895v-198.895h-199.744v198.895h199.744z" />
    <glyph glyph-name="cedilla" unicode="&#xb8;" horiz-adv-x="682" 
d="M109 -492q110 -9 168 -9q152 11 216.5 69t67.5 142q0 61 -42 113t-108 66l31 112h-160l-61 -224q95 -6 119.5 -11.5t41.5 -19.5t19 -30v-2q0 -30 -32 -49q-37 -23 -86 -26l-49 -1h-95z" />
    <glyph glyph-name="guillemotright" unicode="&#xbb;" horiz-adv-x="1375" 
d="M403 153l399 406l-401 407h-301l400 -407l-399 -406h302zM921 153l399 406l-401 407h-301l400 -407l-399 -406h302z" />
    <glyph glyph-name="questiondown" unicode="&#xbf;" horiz-adv-x="1159" 
d="M623 -371q196 0 324 98t128 248v107h-215v-107q0 -65 -84 -101q-69 -30 -153 -30q-85 0 -154 30q-84 36 -84 101v161q0 44 21 63q21 18 104 46q132 44 193 97q108 95 108 270v127h-215v-127q0 -76 -33 -107q-26 -25 -121 -57q-119 -39 -174 -86q-98 -81 -98 -226v-161
q0 -173 159 -270q123 -76 294 -76zM587 905v234h235v-234h-235z" />
    <glyph glyph-name="Agrave" unicode="&#xc0;" horiz-adv-x="1228" 
d="M439 613q131 384 175 561q43 -177 174 -561h-349zM1227 0l-511 1491h-204l-511 -1491h227l138 398h496l138 -398h227zM756 1582h-205l-221 290h241z" />
    <glyph glyph-name="Aacute" unicode="&#xc1;" horiz-adv-x="1228" 
d="M439 613q131 384 175 561q43 -177 174 -561h-349zM1227 0l-511 1491h-204l-511 -1491h227l138 398h496l138 -398h227zM657 1872h241l-221 -290h-205z" />
    <glyph glyph-name="Acircumflex" unicode="&#xc2;" horiz-adv-x="1228" 
d="M439 613q131 384 175 561q43 -177 174 -561h-349zM1227 0l-511 1491h-204l-511 -1491h227l138 398h496l138 -398h227zM755 1842l185 -290h-215l-111 189l-111 -189h-215l185 290h282z" />
    <glyph glyph-name="Adieresis" unicode="&#xc4;" horiz-adv-x="1228" 
d="M439 613q131 384 175 561q43 -177 174 -561h-349zM1227 0l-511 1491h-204l-511 -1491h227l138 398h496l138 -398h227zM311 1626h215v215h-215v-215zM701 1626h215v215h-215v-215z" />
    <glyph glyph-name="Aring" unicode="&#xc5;" horiz-adv-x="1228" 
d="M439 613q131 384 175 561q43 -177 174 -561h-349zM1227 0l-511 1491h-204l-511 -1491h227l138 398h496l138 -398h227zM615 1861q-76 0 -130 -54t-54 -128q0 -76 54 -130t130 -54q74 0 128 54t54 130q0 74 -54 128t-128 54zM661.5 1725.5q19.5 -19.5 19.5 -46.5
q0 -29 -19.5 -48.5t-46.5 -19.5q-29 0 -48.5 19.5t-19.5 48.5q0 27 19.5 46.5t48.5 19.5q27 0 46.5 -19.5z" />
    <glyph glyph-name="AE" unicode="&#xc6;" horiz-adv-x="2256" 
d="M872 1525l-702 -1431l193 -94l299 609h525v-573h899v215h-684v358h577v215h-577v486h684v215h-1214zM1187 824h-419l238 486h181v-486z" />
    <glyph glyph-name="Ccedilla" unicode="&#xc7;" horiz-adv-x="1331" 
d="M679 1510q-195 0 -334 -90q-175 -112 -175 -307v-742q0 -195 175 -307q139 -90 334 -90q194 0 334 90q175 112 175 307v108h-215v-128q0 -90 -103 -141q-83 -41 -191 -41t-191 41q-103 51 -103 141v782q0 91 103 141q83 41 191 41t191 -41q103 -50 103 -141v-128h215v108
q0 195 -175 307q-140 90 -334 90zM453 -492q110 -9 168 -9q152 11 216.5 69t67.5 142q0 61 -42 113t-108 66l31 112h-160l-61 -224q95 -6 119.5 -11.5t41.5 -19.5t19 -30v-2q0 -30 -32 -49q-37 -23 -86 -26l-49 -1h-95z" />
    <glyph glyph-name="Egrave" unicode="&#xc8;" horiz-adv-x="1090" 
d="M170 0h852v195h-637v453h537v195h-537v452h637v195h-852v-1490zM738 1582h-205l-221 290h241z" />
    <glyph glyph-name="Eacute" unicode="&#xc9;" horiz-adv-x="1090" 
d="M170 0h852v195h-637v453h537v195h-537v452h637v195h-852v-1490zM639 1872h241l-221 -290h-205z" />
    <glyph glyph-name="Ecircumflex" unicode="&#xca;" horiz-adv-x="1090" 
d="M170 0h852v195h-637v453h537v195h-537v452h637v195h-852v-1490zM737 1842l185 -290h-215l-111 189l-111 -189h-215l185 290h282z" />
    <glyph glyph-name="Edieresis" unicode="&#xcb;" horiz-adv-x="1090" 
d="M170 0h852v195h-637v453h537v195h-537v452h637v195h-852v-1490zM293 1626h215v215h-215v-215zM683 1626h215v215h-215v-215z" />
    <glyph glyph-name="Igrave" unicode="&#xcc;" horiz-adv-x="615" 
d="M200 0h215v1490h-215v-1490zM449 1582h-205l-221 290h241z" />
    <glyph glyph-name="Iacute" unicode="&#xcd;" horiz-adv-x="615" 
d="M200 0h215v1490h-215v-1490zM350 1872h241l-221 -290h-205z" />
    <glyph glyph-name="Icircumflex" unicode="&#xce;" horiz-adv-x="615" 
d="M200 0h215v1490h-215v-1490zM448 1842l185 -290h-215l-111 189l-111 -189h-215l185 290h282z" />
    <glyph glyph-name="Idieresis" unicode="&#xcf;" horiz-adv-x="615" 
d="M200 0h215v1490h-215v-1490zM5 1626h215v215h-215v-215zM395 1626h215v215h-215v-215z" />
    <glyph glyph-name="Eth" unicode="&#xd0;" horiz-adv-x="1442" 
d="M368 1489v-637h-198v-215h198v-637h452q187 0 320 133q132 132 132 319v584q0 187 -132 320q-133 133 -320 133h-452zM1058 452q0 -98 -70 -168q-70 -69 -168 -69h-237v422h209v215h-209v422h237q98 0 168 -70t70 -168v-584z" />
    <glyph glyph-name="Ntilde" unicode="&#xd1;" horiz-adv-x="1273" 
d="M170 1490v-1489h215v1063q137 -333 548 -1064h170v1491h-215v-1053q-137 323 -547 1052h-171zM742 1538q-42 0 -83 27q-26 15 -44 34q-21 23 -32 32q-14 14 -37 15q-29 -2 -42 -17q-21 -25 -18 -59h-121q0 114 53 168q42 43 110 43h1q62 0 103 -36q21 -22 52 -44
q34 -23 59 -23q29 1 41.5 20t12.5 53h111q0 -116 -53 -170q-42 -43 -111 -43h-2z" />
    <glyph glyph-name="Ograve" unicode="&#xd2;" horiz-adv-x="1358" 
d="M679 1510q-195 0 -334 -90q-175 -112 -175 -307v-742q0 -195 175 -307q139 -90 334 -90q194 0 334 90q175 112 175 307v742q0 195 -175 307q-140 90 -334 90zM973 351q0 -90 -103 -141q-83 -41 -191 -41t-191 41q-103 51 -103 141v782q0 91 103 141q83 41 191 41t191 -41
q103 -50 103 -141v-782zM821 1582h-205l-221 290h241z" />
    <glyph glyph-name="Oacute" unicode="&#xd3;" horiz-adv-x="1358" 
d="M679 1510q-195 0 -334 -90q-175 -112 -175 -307v-742q0 -195 175 -307q139 -90 334 -90q194 0 334 90q175 112 175 307v742q0 195 -175 307q-140 90 -334 90zM973 351q0 -90 -103 -141q-83 -41 -191 -41t-191 41q-103 51 -103 141v782q0 91 103 141q83 41 191 41t191 -41
q103 -50 103 -141v-782zM722 1872h241l-221 -290h-205z" />
    <glyph glyph-name="Ocircumflex" unicode="&#xd4;" horiz-adv-x="1358" 
d="M679 1510q-195 0 -334 -90q-175 -112 -175 -307v-742q0 -195 175 -307q139 -90 334 -90q194 0 334 90q175 112 175 307v742q0 195 -175 307q-140 90 -334 90zM973 351q0 -90 -103 -141q-83 -41 -191 -41t-191 41q-103 51 -103 141v782q0 91 103 141q83 41 191 41t191 -41
q103 -50 103 -141v-782zM820 1842l185 -290h-215l-111 189l-111 -189h-215l185 290h282z" />
    <glyph glyph-name="Otilde" unicode="&#xd5;" horiz-adv-x="1358" 
d="M679 1510q-195 0 -334 -90q-175 -112 -175 -307v-742q0 -195 175 -307q139 -90 334 -90q194 0 334 90q175 112 175 307v742q0 195 -175 307q-140 90 -334 90zM973 351q0 -90 -103 -141q-83 -41 -191 -41t-191 41q-103 51 -103 141v782q0 91 103 141q83 41 191 41t191 -41
q103 -50 103 -141v-782zM784 1538q-42 0 -83 27q-26 15 -44 34q-21 23 -32 32q-14 14 -37 15q-29 -2 -42 -17q-21 -25 -18 -59h-121q0 114 53 168q42 43 110 43h1q62 0 103 -36q21 -22 52 -44q34 -23 59 -23q29 1 41.5 20t12.5 53h111q0 -116 -53 -170q-42 -43 -111 -43h-2z
" />
    <glyph glyph-name="Odieresis" unicode="&#xd6;" horiz-adv-x="1358" 
d="M679 1510q-195 0 -334 -90q-175 -112 -175 -307v-742q0 -195 175 -307q139 -90 334 -90q194 0 334 90q175 112 175 307v742q0 195 -175 307q-140 90 -334 90zM973 351q0 -90 -103 -141q-83 -41 -191 -41t-191 41q-103 51 -103 141v782q0 91 103 141q83 41 191 41t191 -41
q103 -50 103 -141v-782zM376 1626h215v215h-215v-215zM766 1626h215v215h-215v-215z" />
    <glyph glyph-name="multiply" unicode="&#xd7;" horiz-adv-x="1034" 
d="M252 1150l-152 -152l265 -265l-246 -246l152 -152l246 246l265 -265l152 152l-265 265l245 245l-151 152l-246 -245z" />
    <glyph glyph-name="Oslash" unicode="&#xd8;" horiz-adv-x="1456" 
d="M989 1614q-119 51 -261 51q-194 0 -334 -90q-175 -112 -175 -307v-722q0 -122 74 -216l-123 -227l189 -103l108 200q119 -51 261 -51q195 0 334 90q175 112 175 307v722q0 122 -74 217l123 227l-189 102zM434 1268q0 91 103 141q83 41 191 41q84 0 157 -27l-451 -833v678
zM1022 546q0 -90 -103 -141q-83 -41 -191 -41q-84 0 -157 27l451 833v-678z" />
    <glyph glyph-name="Ugrave" unicode="&#xd9;" horiz-adv-x="1299" 
d="M914 352q0 -95 -98 -145q-73 -37 -166 -37q-94 0 -167 37q-98 50 -98 145v1136h-215v-1116q0 -185 150 -296q137 -101 330 -101q192 0 329 101q150 111 150 296v1116h-215v-1136zM792 1582h-205l-221 290h241z" />
    <glyph glyph-name="Uacute" unicode="&#xda;" horiz-adv-x="1299" 
d="M914 352q0 -95 -98 -145q-73 -37 -166 -37q-94 0 -167 37q-98 50 -98 145v1136h-215v-1116q0 -185 150 -296q137 -101 330 -101q192 0 329 101q150 111 150 296v1116h-215v-1136zM693 1872h241l-221 -290h-205z" />
    <glyph glyph-name="Ucircumflex" unicode="&#xdb;" horiz-adv-x="1299" 
d="M914 352q0 -95 -98 -145q-73 -37 -166 -37q-94 0 -167 37q-98 50 -98 145v1136h-215v-1116q0 -185 150 -296q137 -101 330 -101q192 0 329 101q150 111 150 296v1116h-215v-1136zM791 1842l185 -290h-215l-111 189l-111 -189h-215l185 290h282z" />
    <glyph glyph-name="Udieresis" unicode="&#xdc;" horiz-adv-x="1299" 
d="M914 352q0 -95 -98 -145q-73 -37 -166 -37q-94 0 -167 37q-98 50 -98 145v1136h-215v-1116q0 -185 150 -296q137 -101 330 -101q192 0 329 101q150 111 150 296v1116h-215v-1136zM347 1626h215v215h-215v-215zM737 1626h215v215h-215v-215z" />
    <glyph glyph-name="Yacute" unicode="&#xdd;" horiz-adv-x="1373" 
d="M990 1490q-228 -458 -304 -671q-77 213 -306 671h-240l439 -877v-613h215v613l436 877h-240zM728 1872h241l-221 -290h-205z" />
    <glyph glyph-name="Thorn" unicode="&#xde;" horiz-adv-x="1195" 
d="M721 467h-336v538h336q93 0 141 -92q36 -70 36 -177q0 -131 -52 -203q-47 -66 -125 -66zM385 1490h-215v-1490h215v272h336q189 0 301 157q90 128 90 307q0 186 -99 318q-110 146 -292 146h-336v290z" />
    <glyph glyph-name="germandbls" unicode="&#xdf;" horiz-adv-x="1237" 
d="M875 689q147 -80 202 -211q29 -68 29 -138q0 -42 -10 -84q-28 -116 -118 -193q-92 -79 -209 -83h-37q-226 0 -344 153l-58 73l157 121l63 -81q36 -45 79 -61q37 -13 107 -13h25q46 2 85 36q40 36 53 92q6 23 6 45q0 106 -132 179q-191 105 -219 218q-4 19 -4 39
q0 79 69 188q80 127 80 218q0 121 -164 124h-15q-135 0 -172 -53q-25 -37 -30 -166l-1 -18v-1087h-202v1092l1 21q6 172 58 254q93 149 348 149h16q213 -4 305 -128q58 -78 58 -188q0 -145 -109 -317q-41 -66 -41 -83v-2q8 -31 124 -96z" />
    <glyph glyph-name="agrave" unicode="&#xe0;" horiz-adv-x="1017" 
d="M682 295q0 -42 -29 -71q-30 -29 -71 -29h-167q-41 0 -70 29q-30 30 -30 71v136q0 41 29 71q30 29 71 29h167q41 0 71 -29q29 -30 29 -71v-136zM415 1139q-130 0 -222 -92q-93 -92 -93 -223h210q5 62 34 91q30 30 71 30h167q41 0 71 -30q29 -29 29 -71v-177
q-82 59 -183 59h-84q-130 0 -223 -92q-92 -93 -92 -223v-96q0 -130 92 -223q93 -92 223 -92h84q101 0 183 59v-59h215v824q0 131 -93 223q-92 92 -222 92h-167zM641 1231h-205l-221 290h241z" />
    <glyph glyph-name="aacute" unicode="&#xe1;" horiz-adv-x="1017" 
d="M682 295q0 -42 -29 -71q-30 -29 -71 -29h-167q-41 0 -70 29q-30 30 -30 71v136q0 41 29 71q30 29 71 29h167q41 0 71 -29q29 -30 29 -71v-136zM415 1139q-130 0 -222 -92q-93 -92 -93 -223h210q5 62 34 91q30 30 71 30h167q41 0 71 -30q29 -29 29 -71v-177
q-82 59 -183 59h-84q-130 0 -223 -92q-92 -93 -92 -223v-96q0 -130 92 -223q93 -92 223 -92h84q101 0 183 59v-59h215v824q0 131 -93 223q-92 92 -222 92h-167zM542 1521h241l-221 -290h-205z" />
    <glyph glyph-name="acircumflex" unicode="&#xe2;" horiz-adv-x="1017" 
d="M682 295q0 -42 -29 -71q-30 -29 -71 -29h-167q-41 0 -70 29q-30 30 -30 71v136q0 41 29 71q30 29 71 29h167q41 0 71 -29q29 -30 29 -71v-136zM415 1139q-130 0 -222 -92q-93 -92 -93 -223h210q5 62 34 91q30 30 71 30h167q41 0 71 -30q29 -29 29 -71v-177
q-82 59 -183 59h-84q-130 0 -223 -92q-92 -93 -92 -223v-96q0 -130 92 -223q93 -92 223 -92h84q101 0 183 59v-59h215v824q0 131 -93 223q-92 92 -222 92h-167zM640 1491l185 -290h-215l-111 189l-111 -189h-215l185 290h282z" />
    <glyph glyph-name="atilde" unicode="&#xe3;" horiz-adv-x="1017" 
d="M682 295q0 -42 -29 -71q-30 -29 -71 -29h-167q-41 0 -70 29q-30 30 -30 71v136q0 41 29 71q30 29 71 29h167q41 0 71 -29q29 -30 29 -71v-136zM415 1139q-130 0 -222 -92q-93 -92 -93 -223h210q5 62 34 91q30 30 71 30h167q41 0 71 -30q29 -29 29 -71v-177
q-82 59 -183 59h-84q-130 0 -223 -92q-92 -93 -92 -223v-96q0 -130 92 -223q93 -92 223 -92h84q101 0 183 59v-59h215v824q0 131 -93 223q-92 92 -222 92h-167zM604 1187q-42 0 -83 27q-26 15 -44 34q-21 23 -32 32q-14 14 -37 15q-29 -2 -42 -17q-21 -25 -18 -59h-121
q0 114 53 168q42 43 110 43h1q62 0 103 -36q21 -22 52 -44q34 -23 59 -23q29 1 41.5 20t12.5 53h111q0 -116 -53 -170q-42 -43 -111 -43h-2z" />
    <glyph glyph-name="adieresis" unicode="&#xe4;" horiz-adv-x="1017" 
d="M682 295q0 -42 -29 -71q-30 -29 -71 -29h-167q-41 0 -70 29q-30 30 -30 71v136q0 41 29 71q30 29 71 29h167q41 0 71 -29q29 -30 29 -71v-136zM415 1139q-130 0 -222 -92q-93 -92 -93 -223h210q5 62 34 91q30 30 71 30h167q41 0 71 -30q29 -29 29 -71v-177
q-82 59 -183 59h-84q-130 0 -223 -92q-92 -93 -92 -223v-96q0 -130 92 -223q93 -92 223 -92h84q101 0 183 59v-59h215v824q0 131 -93 223q-92 92 -222 92h-167zM196 1275h215v215h-215v-215zM586 1275h215v215h-215v-215z" />
    <glyph glyph-name="aring" unicode="&#xe5;" horiz-adv-x="1017" 
d="M682 295q0 -42 -29 -71q-30 -29 -71 -29h-167q-41 0 -70 29q-30 30 -30 71v136q0 41 29 71q30 29 71 29h167q41 0 71 -29q29 -30 29 -71v-136zM415 1139q-130 0 -222 -92q-93 -92 -93 -223h210q5 62 34 91q30 30 71 30h167q41 0 71 -30q29 -29 29 -71v-177
q-82 59 -183 59h-84q-130 0 -223 -92q-92 -93 -92 -223v-96q0 -130 92 -223q93 -92 223 -92h84q101 0 183 59v-59h215v824q0 131 -93 223q-92 92 -222 92h-167zM500 1510q-76 0 -130 -54t-54 -128q0 -76 54 -130t130 -54q74 0 128 54t54 130q0 74 -54 128t-128 54z
M546.5 1374.5q19.5 -19.5 19.5 -46.5q0 -29 -19.5 -48.5t-46.5 -19.5q-29 0 -48.5 19.5t-19.5 48.5q0 27 19.5 46.5t48.5 19.5q27 0 46.5 -19.5z" />
    <glyph glyph-name="ae" unicode="&#xe6;" horiz-adv-x="1597" 
d="M682 295q0 -42 -29 -71q-30 -29 -71 -29h-167q-41 0 -70 29q-30 30 -30 71v136q0 41 29 71q30 29 71 29h167q41 0 71 -29q29 -30 29 -71v-136zM1265 677h-367v167q0 41 30 70q29 30 70 30h167q40 0 70 -30q30 -29 30 -70v-167zM998 -1h167q130 0 222 93q93 92 93 222
h-215q0 -60 -30 -90t-70 -30h-167q-41 0 -70 30q-30 30 -30 70v168h474q45 0 76 31q32 32 32 76v255q0 130 -93 222q-92 93 -222 93h-167q-120 0 -208 -79q-88 79 -208 79h-167q-130 0 -222 -92q-93 -92 -93 -223h210q5 62 34 91q30 30 71 30h167q41 0 71 -30q29 -29 29 -71
v-177q-82 59 -183 59h-84q-130 0 -223 -92q-92 -93 -92 -223v-96q0 -130 92 -223q93 -92 223 -92h84q191 0 282 100q44 -49 116 -85q47 -16 101 -16z" />
    <glyph glyph-name="ccedilla" unicode="&#xe7;" horiz-adv-x="1017" 
d="M435 1139q-130 0 -223 -92q-92 -92 -92 -223v-509q0 -130 92 -223q93 -92 223 -92h167q130 0 222 92q93 93 93 223v107h-215v-127q0 -41 -30 -71q-30 -29 -70 -29h-167q-41 0 -71 29q-29 29 -29 71v549q0 42 29 71q30 30 71 30h167q40 0 70 -30t30 -71v-127h215v107
q0 131 -93 223q-92 92 -222 92h-167zM293 -492q110 -9 168 -9q152 11 216.5 69t67.5 142q0 61 -42 113t-108 66l31 112h-160l-61 -224q95 -6 119.5 -11.5t41.5 -19.5t19 -30v-2q0 -30 -32 -49q-37 -23 -86 -26l-49 -1h-95z" />
    <glyph glyph-name="egrave" unicode="&#xe8;" horiz-adv-x="997" 
d="M415 1139q-130 0 -223 -92q-92 -92 -92 -223v-509q0 -130 92 -223q93 -92 223 -92h167q130 0 222 92q93 93 93 223h-215q0 -61 -30 -91q-30 -29 -70 -29h-167q-41 0 -70 29q-30 30 -30 71v167h474q45 0 76 32q32 31 32 76v254q0 131 -93 223q-92 92 -222 92h-167z
M682 677h-367v167q0 41 30 71q29 30 70 30h167q40 0 70 -30t30 -71v-167zM640 1231h-205l-221 290h241z" />
    <glyph glyph-name="eacute" unicode="&#xe9;" horiz-adv-x="997" 
d="M415 1139q-130 0 -223 -92q-92 -92 -92 -223v-509q0 -130 92 -223q93 -92 223 -92h167q130 0 222 92q93 93 93 223h-215q0 -61 -30 -91q-30 -29 -70 -29h-167q-41 0 -70 29q-30 30 -30 71v167h474q45 0 76 32q32 31 32 76v254q0 131 -93 223q-92 92 -222 92h-167z
M682 677h-367v167q0 41 30 71q29 30 70 30h167q40 0 70 -30t30 -71v-167zM541 1521h241l-221 -290h-205z" />
    <glyph glyph-name="ecircumflex" unicode="&#xea;" horiz-adv-x="997" 
d="M415 1139q-130 0 -223 -92q-92 -92 -92 -223v-509q0 -130 92 -223q93 -92 223 -92h167q130 0 222 92q93 93 93 223h-215q0 -61 -30 -91q-30 -29 -70 -29h-167q-41 0 -70 29q-30 30 -30 71v167h474q45 0 76 32q32 31 32 76v254q0 131 -93 223q-92 92 -222 92h-167z
M682 677h-367v167q0 41 30 71q29 30 70 30h167q40 0 70 -30t30 -71v-167zM639 1491l185 -290h-215l-111 189l-111 -189h-215l185 290h282z" />
    <glyph glyph-name="edieresis" unicode="&#xeb;" horiz-adv-x="997" 
d="M415 1139q-130 0 -223 -92q-92 -92 -92 -223v-509q0 -130 92 -223q93 -92 223 -92h167q130 0 222 92q93 93 93 223h-215q0 -61 -30 -91q-30 -29 -70 -29h-167q-41 0 -70 29q-30 30 -30 71v167h474q45 0 76 32q32 31 32 76v254q0 131 -93 223q-92 92 -222 92h-167z
M682 677h-367v167q0 41 30 71q29 30 70 30h167q40 0 70 -30t30 -71v-167zM196 1275h215v215h-215v-215zM586 1275h215v215h-215v-215z" />
    <glyph glyph-name="igrave" unicode="&#xec;" horiz-adv-x="515" 
d="M150 0h215v1139h-215v-1139zM399 1231h-205l-221 290h241z" />
    <glyph glyph-name="iacute" unicode="&#xed;" horiz-adv-x="515" 
d="M150 0h215v1139h-215v-1139zM300 1521h241l-221 -290h-205z" />
    <glyph glyph-name="icircumflex" unicode="&#xee;" horiz-adv-x="515" 
d="M150 0h215v1139h-215v-1139zM398 1491l185 -290h-215l-111 189l-111 -189h-215l185 290h282z" />
    <glyph glyph-name="idieresis" unicode="&#xef;" horiz-adv-x="515" 
d="M150 0h215v1139h-215v-1139zM-45 1275h215v215h-215v-215zM345 1275h215v215h-215v-215z" />
    <glyph glyph-name="eth" unicode="&#xf0;" horiz-adv-x="1262" 
d="M1092 638v20v3q-8 170 -67 333q-66 183 -186 305l128 78l-76 125l-172 -104q-88 57 -191 86l-103 30l-60 -206l104 -30l33 -11l-104 -63l76 -126l174 106q67 -56 116 -138q-65 18 -133 18q-191 0 -326 -125t-135 -301v-212q0 -176 135 -301t326 -125t326 125t135 301v212
zM878 426q0 -87 -73 -149q-72 -62 -174 -62t-174 62t-72 149v212q0 87 72 149t174 62q98 0 170 -58q71 -58 76 -141v-5q1 -5 1 -6v-213z" />
    <glyph glyph-name="ntilde" unicode="&#xf1;" 
d="M518 1139q-101 0 -183 -59v59h-215v-1138h83v-1h132v844q0 41 30 71q29 30 70 30h167q41 0 71 -30q29 -29 29 -71v-844h215v824q0 131 -93 223q-92 92 -222 92h-84zM624 1187q-42 0 -83 27q-26 15 -44 34q-21 23 -32 32q-14 14 -37 15q-29 -2 -42 -17q-21 -25 -18 -59
h-121q0 114 53 168q42 43 110 43h1q62 0 103 -36q21 -22 52 -44q34 -23 59 -23q29 1 41.5 20t12.5 53h111q0 -116 -53 -170q-42 -43 -111 -43h-2z" />
    <glyph glyph-name="ograve" unicode="&#xf2;" 
d="M435 1139q-130 0 -223 -92q-92 -92 -92 -223v-509q0 -130 92 -223q93 -92 223 -92h167q130 0 222 92q93 93 93 223v509q0 131 -93 223q-92 92 -222 92h-167zM702 295q0 -41 -30 -71q-30 -29 -70 -29h-167q-41 0 -71 29q-29 29 -29 71v549q0 42 29 71q30 30 71 30h167
q40 0 70 -30t30 -71v-549zM660 1231h-205l-221 290h241z" />
    <glyph glyph-name="oacute" unicode="&#xf3;" 
d="M435 1139q-130 0 -223 -92q-92 -92 -92 -223v-509q0 -130 92 -223q93 -92 223 -92h167q130 0 222 92q93 93 93 223v509q0 131 -93 223q-92 92 -222 92h-167zM702 295q0 -41 -30 -71q-30 -29 -70 -29h-167q-41 0 -71 29q-29 29 -29 71v549q0 42 29 71q30 30 71 30h167
q40 0 70 -30t30 -71v-549zM561 1521h241l-221 -290h-205z" />
    <glyph glyph-name="ocircumflex" unicode="&#xf4;" 
d="M435 1139q-130 0 -223 -92q-92 -92 -92 -223v-509q0 -130 92 -223q93 -92 223 -92h167q130 0 222 92q93 93 93 223v509q0 131 -93 223q-92 92 -222 92h-167zM702 295q0 -41 -30 -71q-30 -29 -70 -29h-167q-41 0 -71 29q-29 29 -29 71v549q0 42 29 71q30 30 71 30h167
q40 0 70 -30t30 -71v-549zM659 1491l185 -290h-215l-111 189l-111 -189h-215l185 290h282z" />
    <glyph glyph-name="otilde" unicode="&#xf5;" 
d="M435 1139q-130 0 -223 -92q-92 -92 -92 -223v-509q0 -130 92 -223q93 -92 223 -92h167q130 0 222 92q93 93 93 223v509q0 131 -93 223q-92 92 -222 92h-167zM702 295q0 -41 -30 -71q-30 -29 -70 -29h-167q-41 0 -71 29q-29 29 -29 71v549q0 42 29 71q30 30 71 30h167
q40 0 70 -30t30 -71v-549zM624 1187q-42 0 -83 27q-26 15 -44 34q-21 23 -32 32q-14 14 -37 15q-29 -2 -42 -17q-21 -25 -18 -59h-121q0 114 53 168q42 43 110 43h1q62 0 103 -36q21 -22 52 -44q34 -23 59 -23q29 1 41.5 20t12.5 53h111q0 -116 -53 -170q-42 -43 -111 -43
h-2z" />
    <glyph glyph-name="odieresis" unicode="&#xf6;" 
d="M435 1139q-130 0 -223 -92q-92 -92 -92 -223v-509q0 -130 92 -223q93 -92 223 -92h167q130 0 222 92q93 93 93 223v509q0 131 -93 223q-92 92 -222 92h-167zM702 295q0 -41 -30 -71q-30 -29 -70 -29h-167q-41 0 -71 29q-29 29 -29 71v549q0 42 29 71q30 30 71 30h167
q40 0 70 -30t30 -71v-549zM216 1275h215v215h-215v-215zM606 1275h215v215h-215v-215z" />
    <glyph glyph-name="divide" unicode="&#xf7;" horiz-adv-x="960" 
d="M100 840v-215h760v215h-760zM597 397v-234h-235v234h235zM597 1302v-234h-235v234h235z" />
    <glyph glyph-name="oslash" unicode="&#xf8;" horiz-adv-x="1182" 
d="M766 1203q-45 13 -92 13h-167q-130 0 -222 -92q-93 -92 -93 -223v-509q0 -88 46 -163l-68 -126l189 -103l50 93q48 -16 98 -16h167q130 0 223 92q92 93 92 223v509q0 93 -50 171l73 134l-189 103zM407 901q0 41 30 71t70 30h150l-250 -461v360zM774 392q0 -42 -29 -71
t-71 -29h-157l257 476v-376z" />
    <glyph glyph-name="ugrave" unicode="&#xf9;" 
d="M702 295q0 -42 -29 -71q-30 -29 -71 -29h-167q-41 0 -70 29q-30 30 -30 71v844h-215v-824q0 -130 92 -223q93 -92 223 -92h167q130 0 222 92q93 93 93 223v824h-215v-844zM660 1231h-205l-221 290h241z" />
    <glyph glyph-name="uacute" unicode="&#xfa;" 
d="M702 295q0 -42 -29 -71q-30 -29 -71 -29h-167q-41 0 -70 29q-30 30 -30 71v844h-215v-824q0 -130 92 -223q93 -92 223 -92h167q130 0 222 92q93 93 93 223v824h-215v-844zM561 1521h241l-221 -290h-205z" />
    <glyph glyph-name="ucircumflex" unicode="&#xfb;" 
d="M702 295q0 -42 -29 -71q-30 -29 -71 -29h-167q-41 0 -70 29q-30 30 -30 71v844h-215v-824q0 -130 92 -223q93 -92 223 -92h167q130 0 222 92q93 93 93 223v824h-215v-844zM659 1491l185 -290h-215l-111 189l-111 -189h-215l185 290h282z" />
    <glyph glyph-name="udieresis" unicode="&#xfc;" 
d="M702 295q0 -42 -29 -71q-30 -29 -71 -29h-167q-41 0 -70 29q-30 30 -30 71v844h-215v-824q0 -130 92 -223q93 -92 223 -92h167q130 0 222 92q93 93 93 223v824h-215v-844zM216 1275h215v215h-215v-215zM606 1275h215v215h-215v-215z" />
    <glyph glyph-name="yacute" unicode="&#xfd;" horiz-adv-x="900" 
d="M665 1139q-147 -466 -196 -682q-49 216 -196 682h-224l308 -981l-54 -202q-13 -39 -50 -59q-31 -15 -76 -7l-107 24l-60 -166l102 -33q47 -14 95 -14q102 0 185 60q84 61 116 161l97 308l-1 1l286 908h-225zM493 1521h241l-221 -290h-205z" />
    <glyph glyph-name="thorn" unicode="&#xfe;" 
d="M702 294q0 -42 -29 -71q-30 -29 -71 -29h-167q-41 0 -70 29q-30 30 -30 71v549q0 41 30 71q29 30 70 30h167q41 0 71 -30q29 -29 29 -71v-549zM335 1490h-215v-1842h215v410q82 -59 183 -59h84q130 0 222 92q93 93 93 223v509q0 131 -93 223q-92 92 -222 92h-84
q-101 0 -183 -59v411z" />
    <glyph glyph-name="ydieresis" unicode="&#xff;" horiz-adv-x="900" 
d="M665 1139q-147 -466 -196 -682q-49 216 -196 682h-224l308 -981l-54 -202q-13 -39 -50 -59q-31 -15 -76 -7l-107 24l-60 -166l102 -33q47 -14 95 -14q102 0 185 60q84 61 116 161l97 308l-1 1l286 908h-225zM147 1275h215v215h-215v-215zM537 1275h215v215h-215v-215z
" />
    <glyph glyph-name="dotlessi" unicode="&#x131;" horiz-adv-x="515" 
d="M150 0h215v1139h-215v-1139z" />
    <glyph glyph-name="circumflex" unicode="&#x2c6;" horiz-adv-x="672" 
d="M477 1491l185 -290h-215l-111 189l-111 -189h-215l185 290h282z" />
    <glyph glyph-name="caron" unicode="&#x2c7;" horiz-adv-x="672" 
d="M195 1201l-185 290h215l111 -189l111 189h215l-185 -290h-282z" />
    <glyph glyph-name="uni02C9" unicode="&#x2c9;" horiz-adv-x="700" 
d="M100 1434v-175h500v175h-500z" />
    <glyph glyph-name="breve" unicode="&#x2d8;" horiz-adv-x="672" 
d="M30 1421h175q131 -149 262 0h175q-95 -210 -306 -210t-306 210z" />
    <glyph glyph-name="dotaccent" unicode="&#x2d9;" horiz-adv-x="415" 
d="M100 1275h215v215h-215v-215z" />
    <glyph glyph-name="ring" unicode="&#x2da;" horiz-adv-x="386" 
d="M194 1510q-76 0 -130 -54t-54 -128q0 -76 54 -130t130 -54q74 0 128 54t54 130q0 74 -54 128t-128 54zM240.5 1374.5q19.5 -19.5 19.5 -46.5q0 -29 -19.5 -48.5t-46.5 -19.5q-29 0 -48.5 19.5t-19.5 48.5q0 27 19.5 46.5t48.5 19.5q27 0 46.5 -19.5z" />
    <glyph glyph-name="ogonek" unicode="&#x2db;" horiz-adv-x="466" 
d="M251 -213q-23 -14 -56 -14q-25 3 -34 13.5t-10 29.5q0 15 9 30q33 54 133 154h-151l-97 -97q-33 -35 -35 -81q0 -109 107 -159q37 -17 78 -17h9q45 3 85 30q41 26 76 76l-70 67z" />
    <glyph glyph-name="tilde" unicode="&#x2dc;" horiz-adv-x="583" 
d="M397 1187q-42 0 -83 27q-26 15 -44 34q-21 23 -32 32q-14 14 -37 15q-29 -2 -42 -17q-21 -25 -18 -59h-121q0 114 53 168q42 43 110 43h1q62 0 103 -36q21 -22 52 -44q34 -23 59 -23q29 1 41.5 20t12.5 53h111q0 -116 -53 -170q-42 -43 -111 -43h-2z" />
    <glyph glyph-name="hungarumlaut" unicode="&#x2dd;" horiz-adv-x="1024" 
d="M374 1521h241l-221 -290h-205zM800 1521h241l-221 -290h-205z" />
    <glyph glyph-name="endash" unicode="&#x2013;" horiz-adv-x="737" 
d="M0 669h737v-169h-737v169z" />
    <glyph glyph-name="emdash" unicode="&#x2014;" horiz-adv-x="937" 
d="M0 679h937v-169h-937v169z" />
    <glyph glyph-name="quoteleft" unicode="&#x2018;" horiz-adv-x="442" 
d="M100 1252q25 156 109 239h115q-63 -132 -68 -239h79v-234h-235v234z" />
    <glyph glyph-name="quoteright" unicode="&#x2019;" horiz-adv-x="442" 
d="M335 1257q-25 -156 -109 -239h-115q63 132 68 239h-79v234h235v-234z" />
    <glyph glyph-name="quotesinglbase" unicode="&#x201a;" horiz-adv-x="442" 
d="M335 237h-235v-234h79q-5 -107 -68 -239h115q84 83 109 239v234z" />
    <glyph glyph-name="quotedblleft" unicode="&#x201c;" horiz-adv-x="771" 
d="M100 1252q25 156 109 239h115q-63 -132 -68 -239h79v-234h-235v234zM429 1252q25 156 109 239h115q-63 -132 -68 -239h79v-234h-235v234z" />
    <glyph glyph-name="quotedblright" unicode="&#x201d;" horiz-adv-x="771" 
d="M335 1257q-25 -156 -109 -239h-115q63 132 68 239h-79v234h235v-234zM664 1257q-25 -156 -109 -239h-115q63 132 68 239h-79v234h235v-234z" />
    <glyph glyph-name="quotedblbase" unicode="&#x201e;" horiz-adv-x="771" 
d="M335 3q-25 -156 -109 -239h-115q63 132 68 239h-79v234h235v-234zM664 3q-25 -156 -109 -239h-115q63 132 68 239h-79v234h235v-234z" />
    <glyph glyph-name="dagger" unicode="&#x2020;" horiz-adv-x="1080" 
d="M460 -380h160v1840h-160v-1840zM1070 850v160h-1060v-160h1060z" />
    <glyph glyph-name="daggerdbl" unicode="&#x2021;" horiz-adv-x="1080" 
d="M460 -380h160v1840h-160v-1840zM1070 900v160h-1060v-160h1060zM1070 0v160h-1060v-160h1060z" />
    <glyph glyph-name="bullet" unicode="&#x2022;" horiz-adv-x="833" 
d="M640.5 927.5q92.5 -92.5 92.5 -223.5q0 -132 -92.5 -224.5t-224.5 -92.5q-131 0 -223.5 92.5t-92.5 224.5q0 131 92.5 223.5t223.5 92.5q132 0 224.5 -92.5z" />
    <glyph glyph-name="ellipsis" unicode="&#x2026;" horiz-adv-x="2048" 
d="M335 234v-234h-235v234h235zM1018 234v-234h-235v234h235zM1701 234v-234h-235v234h235z" />
    <glyph glyph-name="guilsinglleft" unicode="&#x2039;" horiz-adv-x="902" 
d="M801 153l-399 406l400 407h-301l-401 -407l399 -406h302z" />
    <glyph glyph-name="guilsinglright" unicode="&#x203a;" horiz-adv-x="902" 
d="M403 153l399 406l-401 407h-301l400 -407l-399 -406h302z" />
    <glyph glyph-name="fraction" unicode="&#x2044;" horiz-adv-x="508" 
d="M-390 -27l1101 1548h167l-1101 -1548h-167z" />
    <glyph glyph-name="fraction" unicode="&#x2215;" horiz-adv-x="508" 
d="M-390 -27l1101 1548h167l-1101 -1548h-167z" />
    <glyph glyph-name="franc" unicode="&#x20a3;" horiz-adv-x="1245" 
d="M640 255v175h-255v218h537v195h-537v452h637v195h-852v-1060h-200v-175h200v-255h215v255h255z" />
    <glyph glyph-name="lira" unicode="&#x20a4;" horiz-adv-x="1301" 
d="M683 255q-71 18 -136 25q11 21 20 42q35 78 49 154h211v214h-213q-4 26 -10 55h234v215h-283q-17 94 -15 157q3 65 50 112q45 45 112 45q58 0 100 -42q44 -45 51 -134l214 17q-13 166 -112 268q-104 106 -253 106q-156 0 -264 -108q-107 -106 -113 -255q-3 -73 12 -166
h-156v-215h202q7 -29 12 -55h-225v-214h225q-10 -34 -25 -68q-38 -86 -125 -181l109 -176q64 19 115 19q71 0 160 -23q184 -47 259 -47q100 0 243 71l-96 192q-97 -48 -147 -48q-48 0 -205 40z" />
    <glyph glyph-name="peseta" unicode="&#x20a7;" horiz-adv-x="2310" 
d="M665 757h-302v538h302q84 0 127 -92q32 -69 32 -177q0 -130 -46 -203q-42 -66 -113 -66zM1160 935v-699q0 -93 22 -139q47 -97 174 -97h616q151 0 242 117q75 97 75 231q0 140 -81 219q-89 109 -236 109h-126q-60 0 -85 50q-15 29 -15 105q0 51 27 83q26 31 73 31h98
q35 0 62 -23q28 -22 36 -76l209 46q-23 108 -110 177q-87 70 -197 70h-98q-45 0 -85 -10h-386v361h-215v-361h-149q-19 122 -83 216q-98 145 -263 145h-495v-1490h193v562h302q171 0 271 157q60 94 76 216h148zM1531 811q0 -133 80 -226q89 -103 235 -103h126q63 0 88 -62
q14 -33 14 -72q0 -81 -30 -120q-26 -33 -72 -33h-597v740h177q-21 -57 -21 -124z" />
    <glyph glyph-name="Euro" unicode="&#x20ac;" horiz-adv-x="1490" 
d="M623 261q-90 49 -90 135v66h335v215h-335v107h375v215h-375v119q0 106 135 155q111 41 237 21t183 -87l164 139q-107 127 -308 159q-186 30 -351 -30q-131 -48 -203 -142q-72 -93 -72 -215v-119h-148v-215h148v-107h-148v-215h148v-66q0 -150 109 -255q110 -106 293 -134
q51 -7 104 -7q172 0 305 71q148 79 191 220l-205 63q-24 -77 -139 -116q-107 -36 -225 -18q-73 11 -128 41z" />
    <glyph glyph-name="uni2116" unicode="&#x2116;" horiz-adv-x="1135" 
d="M865 347l-76 129l-76 149l-458 835h-145v-1460h160v1115l86 -139l67 -140l458 -836h144v1460h-160v-1113zM1200 -4h560v146h-560v-146zM1243 876q-88 -91 -88 -217t88 -217q88 -89 213 -89q124 0 213 89q88 91 88 217t-88 217q-89 89 -213 89q-125 0 -213 -89zM1332 533
q-51 52 -51 126t51 126q52 53 124 53t123 -53q51 -52 51 -126t-51 -126q-51 -53 -123 -53t-124 53z" />
    <glyph glyph-name="trademark" unicode="&#x2122;" horiz-adv-x="1201" 
d="M70.501 1466.04v-78.0049h159.754v-518.031h96.7529v518.031h159.754v78.0049h-416.261zM1031.02 870v596.036h-81.4521q-143.104 -326.42 -190.805 -503.23q-47.7012 176.811 -190.806 503.23h-81.4521v-596.036h96.7529v388.424q35.5508 -145.209 142.204 -388.424
h66.6016q106.652 243.215 142.204 388.023v-388.023h96.752z" />
    <glyph glyph-name="partialdiff" unicode="&#x2202;" horiz-adv-x="977" 
d="M726 669q-10 44 -45 72t-80 28h-205q-52 0 -90 -37q-38 -38 -38 -90v-386q0 -52 38 -90t90 -38h205q52 0 90 38t38 90v394zM544 1118q-115 141 -273 150l-54 3l6 108l54 -3q159 -8 284 -120q34 -31 66 -71q103 -127 165 -326q43 -140 45 -244v-359q0 -98 -69 -167
t-167 -69h-205q-98 0 -167 69t-69 167v386q0 97 69 166q69 70 167 70h205q20 0 74 -10q-61 163 -131 250z" />
    <glyph glyph-name="Delta" unicode="&#x2206;" horiz-adv-x="1251" 
d="M80 20l560 1329l561 -1329h-1121zM1060 113l-420 995l-419 -995h839z" />
    <glyph glyph-name="product" unicode="&#x220f;" horiz-adv-x="1212" 
d="M1147 1380v-109h-223v-1251h-108v1251h-400v-1251h-108v1251h-223v109h1062z" />
    <glyph glyph-name="summation" unicode="&#x2211;" horiz-adv-x="1318" 
d="M285 1271l803 -571l-803 -571h943v-109h-1118v118l791 562l-791 562v118h1118v-109h-943z" />
    <glyph glyph-name="minus" unicode="&#x2212;" horiz-adv-x="960" 
d="M100 840v-215h760v215h-760z" />
    <glyph glyph-name="radical" unicode="&#x221a;" horiz-adv-x="991" 
d="M532 1656h409v-83h-339l-256 -1553h-96l-170 493l79 27l128 -371z" />
    <glyph glyph-name="infinity" unicode="&#x221e;" horiz-adv-x="2079" 
d="M523 345q-54 0 -106 17q-52 18 -98 52q-46 35 -82 85q-35 51 -56 119t-21 154q0 87 21 156q21 67 57 119q36 51 83 86q47 34 98 51q52 18 104 18q93 -2 177 -38q86 -39 162 -104q79 -67 143 -149l44 -58l45 58q64 82 143 149q76 65 162 104q83 36 177 38q52 0 103 -18
q52 -17 98 -51q47 -35 83 -86q36 -50 57 -119q21 -68 22 -156q-1 -88 -22 -156t-56 -118q-37 -52 -84 -85q-45 -34 -98 -51q-52 -17 -103 -17q-95 1 -177 37q-86 37 -162 102q-79 67 -143 149l-45 58l-44 -58q-65 -82 -143 -149q-77 -65 -162 -102q-83 -36 -177 -37z
M519 451q114 0 226 70q106 67 215 208l32 43l-32 43q-56 72 -121 135q-71 64 -146 101q-83 41 -174 42q-77 -1 -138 -41q-63 -40 -98 -113q-36 -72 -36 -167t36 -167q35 -73 98 -114q61 -39 138 -40zM1139 814l-32 -42l32 -43q58 -76 121 -136q69 -64 146 -101
q82 -40 174 -41q77 1 138 40q62 41 98 114q35 72 36 167q-1 99 -38 171q-37 73 -99 112q-62 38 -135 38q-92 -1 -174 -41q-77 -38 -146 -101q-65 -62 -121 -137z" />
    <glyph glyph-name="integral" unicode="&#x222b;" horiz-adv-x="915" 
d="M594 1458q115 157 319 157q36 0 53 -2l-22 -124h-26q-142 0 -220 -101q-53 -69 -65 -150q-34 -198 -103 -602q-69 -400 -103 -601q-15 -106 -85 -200q-115 -157 -319 -157q-36 0 -53 2l22 124h26q142 0 220 101q53 69 65 150q35 201 103 601q69 402 103 602
q15 106 85 200z" />
    <glyph glyph-name="approxequal" unicode="&#x2248;" horiz-adv-x="1000" 
d="M835 595q-104 -86 -205 -86h-15q-73 4 -184 68q-80 45 -115 45h-4q-53 -3 -139 -79v95q68 72 143 73q58 0 160 -58q95 -54 146 -56h5q83 0 208 97v-99zM835 393q-104 -86 -205 -86h-15q-73 4 -184 68q-80 45 -115 45h-4q-53 -3 -139 -79v95q68 72 143 73q58 0 160 -58
q95 -54 146 -56h5q83 0 208 97v-99z" />
    <glyph glyph-name="lessequal" unicode="&#x2264;" horiz-adv-x="887" 
d="M50 89h787v-89h-787v89zM51 646l783 436v-103l-672 -372l672 -371v-102l-783 434v78z" />
    <glyph glyph-name="greaterequal" unicode="&#x2265;" horiz-adv-x="887" 
d="M837 0h-787v89h787v-89zM836 568l-783 -434v102l672 371l-672 372v103l783 -436v-78z" />
    <glyph glyph-name="uniF001" unicode="&#xf001;" horiz-adv-x="1257" 
d="M231 1129h-111v-194h111v-935h215v935h265v194h-265v66q0 42 29 71t71 29h191v195h-191q-130 0 -223 -92q-92 -93 -92 -223v-46zM892 0h215v1139h-215v-1139zM892 1275h215v215h-215v-215z" />
    <glyph glyph-name="uniF001" unicode="&#xfb01;" horiz-adv-x="1257" 
d="M231 1129h-111v-194h111v-935h215v935h265v194h-265v66q0 42 29 71t71 29h191v195h-191q-130 0 -223 -92q-92 -93 -92 -223v-46zM892 0h215v1139h-215v-1139zM892 1275h215v215h-215v-215z" />
    <glyph glyph-name="uniF002" unicode="&#xf002;" horiz-adv-x="1277" 
d="M231 1129h-111v-194h111v-935h215v935h265v194h-265v66q0 42 29 71t71 29h191v195h-191q-130 0 -223 -92q-92 -93 -92 -223v-46zM902 0h215v1490h-215v-1490z" />
    <glyph glyph-name="uniF002" unicode="&#xfb02;" horiz-adv-x="1277" 
d="M231 1129h-111v-194h111v-935h215v935h265v194h-265v66q0 42 29 71t71 29h191v195h-191q-130 0 -223 -92q-92 -93 -92 -223v-46zM902 0h215v1490h-215v-1490z" />
    <glyph glyph-name="Amacron" unicode="&#x100;" horiz-adv-x="1228" 
d="M439 613q131 384 175 561q43 -177 174 -561h-349zM1227 0l-511 1491h-204l-511 -1491h227l138 398h496l138 -398h227zM364 1785v-175h500v175h-500z" />
    <glyph glyph-name="amacron" unicode="&#x101;" horiz-adv-x="1017" 
d="M682 295q0 -42 -29 -71q-30 -29 -71 -29h-167q-41 0 -70 29q-30 30 -30 71v136q0 41 29 71q30 29 71 29h167q41 0 71 -29q29 -30 29 -71v-136zM415 1139q-130 0 -222 -92q-93 -92 -93 -223h210q5 62 34 91q30 30 71 30h167q41 0 71 -30q29 -29 29 -71v-177
q-82 59 -183 59h-84q-130 0 -223 -92q-92 -93 -92 -223v-96q0 -130 92 -223q93 -92 223 -92h84q101 0 183 59v-59h215v824q0 131 -93 223q-92 92 -222 92h-167zM249 1434v-175h500v175h-500z" />
    <glyph glyph-name="Abreve" unicode="&#x102;" horiz-adv-x="1228" 
d="M439 613q131 384 175 561q43 -177 174 -561h-349zM1227 0l-511 1491h-204l-511 -1491h227l138 398h496l138 -398h227zM308 1772h175q131 -149 262 0h175q-95 -210 -306 -210t-306 210z" />
    <glyph glyph-name="abreve" unicode="&#x103;" horiz-adv-x="1017" 
d="M682 295q0 -42 -29 -71q-30 -29 -71 -29h-167q-41 0 -70 29q-30 30 -30 71v136q0 41 29 71q30 29 71 29h167q41 0 71 -29q29 -30 29 -71v-136zM415 1139q-130 0 -222 -92q-93 -92 -93 -223h210q5 62 34 91q30 30 71 30h167q41 0 71 -30q29 -29 29 -71v-177
q-82 59 -183 59h-84q-130 0 -223 -92q-92 -93 -92 -223v-96q0 -130 92 -223q93 -92 223 -92h84q101 0 183 59v-59h215v824q0 131 -93 223q-92 92 -222 92h-167zM213 1421h175q131 -149 262 0h175q-95 -210 -306 -210t-306 210z" />
    <glyph glyph-name="Aogonek" unicode="&#x104;" horiz-adv-x="1228" 
d="M439 613q131 384 175 561q43 -177 174 -561h-349zM1227 0l-511 1491h-204l-511 -1491h227l138 398h496l138 -398h227zM1113 -213q-23 -14 -56 -14q-25 3 -34 13.5t-10 29.5q0 15 9 30q33 54 133 154h-151l-97 -97q-33 -35 -35 -81q0 -109 107 -159q37 -17 78 -17h9
q45 3 85 30q41 26 76 76l-70 67z" />
    <glyph glyph-name="aogonek" unicode="&#x105;" horiz-adv-x="1017" 
d="M682 295q0 -42 -29 -71q-30 -29 -71 -29h-167q-41 0 -70 29q-30 30 -30 71v136q0 41 29 71q30 29 71 29h167q41 0 71 -29q29 -30 29 -71v-136zM415 1139q-130 0 -222 -92q-93 -92 -93 -223h210q5 62 34 91q30 30 71 30h167q41 0 71 -30q29 -29 29 -71v-177
q-82 59 -183 59h-84q-130 0 -223 -92q-92 -93 -92 -223v-96q0 -130 92 -223q93 -92 223 -92h84q101 0 183 59v-59h215v824q0 131 -93 223q-92 92 -222 92h-167zM783 -213q-23 -14 -56 -14q-25 3 -34 13.5t-10 29.5q0 15 9 30q33 54 133 154h-151l-97 -97q-33 -35 -35 -81
q0 -109 107 -159q37 -17 78 -17h9q45 3 85 30q41 26 76 76l-70 67z" />
    <glyph glyph-name="Cacute" unicode="&#x106;" horiz-adv-x="1331" 
d="M679 1510q-195 0 -334 -90q-175 -112 -175 -307v-742q0 -195 175 -307q139 -90 334 -90q194 0 334 90q175 112 175 307v108h-215v-128q0 -90 -103 -141q-83 -41 -191 -41t-191 41q-103 51 -103 141v782q0 91 103 141q83 41 191 41t191 -41q103 -50 103 -141v-128h215v108
q0 195 -175 307q-140 90 -334 90zM722 1872h241l-221 -290h-205z" />
    <glyph glyph-name="cacute" unicode="&#x107;" horiz-adv-x="1017" 
d="M435 1139q-130 0 -223 -92q-92 -92 -92 -223v-509q0 -130 92 -223q93 -92 223 -92h167q130 0 222 92q93 93 93 223v107h-215v-127q0 -41 -30 -71q-30 -29 -70 -29h-167q-41 0 -71 29q-29 29 -29 71v549q0 42 29 71q30 30 71 30h167q40 0 70 -30t30 -71v-127h215v107
q0 131 -93 223q-92 92 -222 92h-167zM562 1521h241l-221 -290h-205z" />
    <glyph glyph-name="Ccircumflex" unicode="&#x108;" horiz-adv-x="1331" 
d="M679 1510q-195 0 -334 -90q-175 -112 -175 -307v-742q0 -195 175 -307q139 -90 334 -90q194 0 334 90q175 112 175 307v108h-215v-128q0 -90 -103 -141q-83 -41 -191 -41t-191 41q-103 51 -103 141v782q0 91 103 141q83 41 191 41t191 -41q103 -50 103 -141v-128h215v108
q0 195 -175 307q-140 90 -334 90zM820 1842l185 -290h-215l-111 189l-111 -189h-215l185 290h282z" />
    <glyph glyph-name="ccircumflex" unicode="&#x109;" horiz-adv-x="1017" 
d="M435 1139q-130 0 -223 -92q-92 -92 -92 -223v-509q0 -130 92 -223q93 -92 223 -92h167q130 0 222 92q93 93 93 223v107h-215v-127q0 -41 -30 -71q-30 -29 -70 -29h-167q-41 0 -71 29q-29 29 -29 71v549q0 42 29 71q30 30 71 30h167q40 0 70 -30t30 -71v-127h215v107
q0 131 -93 223q-92 92 -222 92h-167zM660 1491l185 -290h-215l-111 189l-111 -189h-215l185 290h282z" />
    <glyph glyph-name="Cdotaccent" unicode="&#x10a;" horiz-adv-x="1331" 
d="M679 1510q-195 0 -334 -90q-175 -112 -175 -307v-742q0 -195 175 -307q139 -90 334 -90q194 0 334 90q175 112 175 307v108h-215v-128q0 -90 -103 -141q-83 -41 -191 -41t-191 41q-103 51 -103 141v782q0 91 103 141q83 41 191 41t191 -41q103 -50 103 -141v-128h215v108
q0 195 -175 307q-140 90 -334 90zM572 1626h215v215h-215v-215z" />
    <glyph glyph-name="cdotaccent" unicode="&#x10b;" horiz-adv-x="1017" 
d="M435 1139q-130 0 -223 -92q-92 -92 -92 -223v-509q0 -130 92 -223q93 -92 223 -92h167q130 0 222 92q93 93 93 223v107h-215v-127q0 -41 -30 -71q-30 -29 -70 -29h-167q-41 0 -71 29q-29 29 -29 71v549q0 42 29 71q30 30 71 30h167q40 0 70 -30t30 -71v-127h215v107
q0 131 -93 223q-92 92 -222 92h-167zM411 1275h215v215h-215v-215z" />
    <glyph glyph-name="Ccaron" unicode="&#x10c;" horiz-adv-x="1331" 
d="M679 1510q-195 0 -334 -90q-175 -112 -175 -307v-742q0 -195 175 -307q139 -90 334 -90q194 0 334 90q175 112 175 307v108h-215v-128q0 -90 -103 -141q-83 -41 -191 -41t-191 41q-103 51 -103 141v782q0 91 103 141q83 41 191 41t191 -41q103 -50 103 -141v-128h215v108
q0 195 -175 307q-140 90 -334 90zM538 1552l-185 290h215l111 -189l111 189h215l-185 -290h-282z" />
    <glyph glyph-name="ccaron" unicode="&#x10d;" horiz-adv-x="1017" 
d="M435 1139q-130 0 -223 -92q-92 -92 -92 -223v-509q0 -130 92 -223q93 -92 223 -92h167q130 0 222 92q93 93 93 223v107h-215v-127q0 -41 -30 -71q-30 -29 -70 -29h-167q-41 0 -71 29q-29 29 -29 71v549q0 42 29 71q30 30 71 30h167q40 0 70 -30t30 -71v-127h215v107
q0 131 -93 223q-92 92 -222 92h-167zM378 1201l-185 290h215l111 -189l111 189h215l-185 -290h-282z" />
    <glyph glyph-name="Dcaron" unicode="&#x10e;" horiz-adv-x="1286" 
d="M170 1490v-1490h506q303 0 418 233q101 206 101 512t-101 512q-115 233 -418 233h-506zM676 195h-291v1100h291q184 0 244 -155q60 -156 60 -395q0 -257 -69 -416q-59 -134 -235 -134zM542 1552l-185 290h215l111 -189l111 189h215l-185 -290h-282z" />
    <glyph glyph-name="dcaron" unicode="&#x10f;" horiz-adv-x="1277" 
d="M682 1080q-82 59 -183 59h-84q-130 0 -223 -92q-92 -92 -92 -223v-509q0 -130 92 -223q93 -92 223 -92h84q101 0 183 59v-59h215v1490h-215v-410zM682 295q0 -41 -30 -71q-30 -29 -70 -29h-167q-41 0 -71 29q-29 29 -29 71v549q0 42 29 71q30 30 71 30h167q40 0 70 -30
t30 -71v-549zM1252 1257q-25 -156 -109 -239h-115q63 132 68 239h-79v234h235v-234z" />
    <glyph glyph-name="Dcroat" unicode="&#x110;" horiz-adv-x="1263" 
d="M228 1489v-637h-198v-215h198v-637h452q187 0 320 133q132 132 132 319v584q0 187 -132 320q-133 133 -320 133h-452zM918 452q0 -98 -70 -168q-70 -69 -168 -69h-237v422h209v215h-209v422h237q98 0 168 -70t70 -168v-584z" />
    <glyph glyph-name="dcroat" unicode="&#x111;" horiz-adv-x="1067" 
d="M682 1080q-82 59 -183 59h-84q-130 0 -223 -92q-92 -92 -92 -223v-509q0 -130 92 -223q93 -92 223 -92h84q101 0 183 59v-59h215v1490h-215v-410zM682 295q0 -41 -30 -71q-30 -29 -70 -29h-167q-41 0 -71 29q-29 29 -29 71v549q0 42 29 71q30 30 71 30h167q40 0 70 -30
t30 -71v-549zM447 1394v-175h612v175h-612z" />
    <glyph glyph-name="Emacron" unicode="&#x112;" horiz-adv-x="1090" 
d="M170 0h852v195h-637v453h537v195h-537v452h637v195h-852v-1490zM346 1785v-175h500v175h-500z" />
    <glyph glyph-name="emacron" unicode="&#x113;" horiz-adv-x="997" 
d="M415 1139q-130 0 -223 -92q-92 -92 -92 -223v-509q0 -130 92 -223q93 -92 223 -92h167q130 0 222 92q93 93 93 223h-215q0 -61 -30 -91q-30 -29 -70 -29h-167q-41 0 -70 29q-30 30 -30 71v167h474q45 0 76 32q32 31 32 76v254q0 131 -93 223q-92 92 -222 92h-167z
M682 677h-367v167q0 41 30 71q29 30 70 30h167q40 0 70 -30t30 -71v-167zM249 1434v-175h500v175h-500z" />
    <glyph glyph-name="Ebreve" unicode="&#x114;" horiz-adv-x="1090" 
d="M170 0h852v195h-637v453h537v195h-537v452h637v195h-852v-1490zM290 1772h175q131 -149 262 0h175q-95 -210 -306 -210t-306 210z" />
    <glyph glyph-name="ebreve" unicode="&#x115;" horiz-adv-x="997" 
d="M415 1139q-130 0 -223 -92q-92 -92 -92 -223v-509q0 -130 92 -223q93 -92 223 -92h167q130 0 222 92q93 93 93 223h-215q0 -61 -30 -91q-30 -29 -70 -29h-167q-41 0 -70 29q-30 30 -30 71v167h474q45 0 76 32q32 31 32 76v254q0 131 -93 223q-92 92 -222 92h-167z
M682 677h-367v167q0 41 30 71q29 30 70 30h167q40 0 70 -30t30 -71v-167zM193 1421h175q131 -149 262 0h175q-95 -210 -306 -210t-306 210z" />
    <glyph glyph-name="Edotaccent" unicode="&#x116;" horiz-adv-x="1090" 
d="M170 0h852v195h-637v453h537v195h-537v452h637v195h-852v-1490zM489 1626h215v215h-215v-215z" />
    <glyph glyph-name="edotaccent" unicode="&#x117;" horiz-adv-x="997" 
d="M415 1139q-130 0 -223 -92q-92 -92 -92 -223v-509q0 -130 92 -223q93 -92 223 -92h167q130 0 222 92q93 93 93 223h-215q0 -61 -30 -91q-30 -29 -70 -29h-167q-41 0 -70 29q-30 30 -30 71v167h474q45 0 76 32q32 31 32 76v254q0 131 -93 223q-92 92 -222 92h-167z
M682 677h-367v167q0 41 30 71q29 30 70 30h167q40 0 70 -30t30 -71v-167zM391 1275h215v215h-215v-215z" />
    <glyph glyph-name="Eogonek" unicode="&#x118;" horiz-adv-x="1090" 
d="M170 0h852v195h-637v453h537v195h-537v452h637v195h-852v-1490zM908 -213q-23 -14 -56 -14q-25 3 -34 13.5t-10 29.5q0 15 9 30q33 54 133 154h-151l-97 -97q-33 -35 -35 -81q0 -109 107 -159q37 -17 78 -17h9q45 3 85 30q41 26 76 76l-70 67z" />
    <glyph glyph-name="eogonek" unicode="&#x119;" horiz-adv-x="997" 
d="M415 1139q-130 0 -223 -92q-92 -92 -92 -223v-509q0 -130 92 -223q93 -92 223 -92h167q130 0 222 92q93 93 93 223h-215q0 -61 -30 -91q-30 -29 -70 -29h-167q-41 0 -70 29q-30 30 -30 71v167h474q45 0 76 32q32 31 32 76v254q0 131 -93 223q-92 92 -222 92h-167z
M682 677h-367v167q0 41 30 71q29 30 70 30h167q40 0 70 -30t30 -71v-167zM773 -109q-23 -14 -56 -14q-25 3 -34 13.5t-10 29.5q0 15 9 30q33 54 133 154h-151l-97 -97q-33 -35 -35 -81q0 -109 107 -159q37 -17 78 -17h9q45 3 85 30q41 26 76 76l-70 67z" />
    <glyph glyph-name="Ecaron" unicode="&#x11a;" horiz-adv-x="1090" 
d="M170 0h852v195h-637v453h537v195h-537v452h637v195h-852v-1490zM455 1552l-185 290h215l111 -189l111 189h215l-185 -290h-282z" />
    <glyph glyph-name="ecaron" unicode="&#x11b;" horiz-adv-x="997" 
d="M415 1139q-130 0 -223 -92q-92 -92 -92 -223v-509q0 -130 92 -223q93 -92 223 -92h167q130 0 222 92q93 93 93 223h-215q0 -61 -30 -91q-30 -29 -70 -29h-167q-41 0 -70 29q-30 30 -30 71v167h474q45 0 76 32q32 31 32 76v254q0 131 -93 223q-92 92 -222 92h-167z
M682 677h-367v167q0 41 30 71q29 30 70 30h167q40 0 70 -30t30 -71v-167zM358 1201l-185 290h215l111 -189l111 189h215l-185 -290h-282z" />
    <glyph glyph-name="Gcircumflex" unicode="&#x11c;" horiz-adv-x="1345" 
d="M870 1273q103 -50 103 -141h215q0 175 -175 287q-140 90 -334 90q-195 0 -334 -90q-175 -112 -175 -307v-742q0 -195 175 -307q139 -90 334 -90q194 0 334 90q175 112 175 307v351q0 45 -32 76q-31 32 -76 32h-401v-195h294v-284q0 -90 -103 -141q-83 -41 -191 -41
t-191 41q-103 51 -103 141v782q0 91 103 141q83 41 191 41t191 -41zM820 1842l185 -290h-215l-111 189l-111 -189h-215l185 290h282z" />
    <glyph glyph-name="gcircumflex" unicode="&#x11d;" 
d="M702 1079q-82 59 -183 59h-84q-130 0 -223 -92q-92 -92 -92 -223v-448q0 -131 92 -223q93 -92 223 -92h84q101 0 183 59v-156q0 -41 -29 -71q-30 -29 -71 -29h-167q-41 0 -71 29q-29 30 -29 71h-215q0 -130 92 -222q93 -93 223 -93h167q130 0 222 93q93 92 93 222v1175
h-215v-59zM702 355q0 -41 -30 -71q-30 -29 -70 -29h-167q-41 0 -71 29q-29 29 -29 71v488q0 42 29 71q30 30 71 30h167q40 0 70 -30t30 -71v-488zM660 1491l185 -290h-215l-111 189l-111 -189h-215l185 290h282z" />
    <glyph glyph-name="Gbreve" unicode="&#x11e;" horiz-adv-x="1345" 
d="M870 1273q103 -50 103 -141h215q0 175 -175 287q-140 90 -334 90q-195 0 -334 -90q-175 -112 -175 -307v-742q0 -195 175 -307q139 -90 334 -90q194 0 334 90q175 112 175 307v351q0 45 -32 76q-31 32 -76 32h-401v-195h294v-284q0 -90 -103 -141q-83 -41 -191 -41
t-191 41q-103 51 -103 141v782q0 91 103 141q83 41 191 41t191 -41zM373 1772h175q131 -149 262 0h175q-95 -210 -306 -210t-306 210z" />
    <glyph glyph-name="gbreve" unicode="&#x11f;" 
d="M702 1079q-82 59 -183 59h-84q-130 0 -223 -92q-92 -92 -92 -223v-448q0 -131 92 -223q93 -92 223 -92h84q101 0 183 59v-156q0 -41 -29 -71q-30 -29 -71 -29h-167q-41 0 -71 29q-29 30 -29 71h-215q0 -130 92 -222q93 -93 223 -93h167q130 0 222 93q93 92 93 222v1175
h-215v-59zM702 355q0 -41 -30 -71q-30 -29 -70 -29h-167q-41 0 -71 29q-29 29 -29 71v488q0 42 29 71q30 30 71 30h167q40 0 70 -30t30 -71v-488zM213 1421h175q131 -149 262 0h175q-95 -210 -306 -210t-306 210z" />
    <glyph glyph-name="Gdotaccent" unicode="&#x120;" horiz-adv-x="1345" 
d="M870 1273q103 -50 103 -141h215q0 175 -175 287q-140 90 -334 90q-195 0 -334 -90q-175 -112 -175 -307v-742q0 -195 175 -307q139 -90 334 -90q194 0 334 90q175 112 175 307v351q0 45 -32 76q-31 32 -76 32h-401v-195h294v-284q0 -90 -103 -141q-83 -41 -191 -41
t-191 41q-103 51 -103 141v782q0 91 103 141q83 41 191 41t191 -41zM572 1626h215v215h-215v-215z" />
    <glyph glyph-name="gdotaccent" unicode="&#x121;" 
d="M702 1079q-82 59 -183 59h-84q-130 0 -223 -92q-92 -92 -92 -223v-448q0 -131 92 -223q93 -92 223 -92h84q101 0 183 59v-156q0 -41 -29 -71q-30 -29 -71 -29h-167q-41 0 -71 29q-29 30 -29 71h-215q0 -130 92 -222q93 -93 223 -93h167q130 0 222 93q93 92 93 222v1175
h-215v-59zM702 355q0 -41 -30 -71q-30 -29 -70 -29h-167q-41 0 -71 29q-29 29 -29 71v488q0 42 29 71q30 30 71 30h167q40 0 70 -30t30 -71v-488zM411 1275h215v215h-215v-215z" />
    <glyph glyph-name="uni0122" unicode="&#x122;" horiz-adv-x="1345" 
d="M870 1273q103 -50 103 -141h215q0 175 -175 287q-140 90 -334 90q-195 0 -334 -90q-175 -112 -175 -307v-742q0 -195 175 -307q139 -90 334 -90q194 0 334 90q175 112 175 307v351q0 45 -32 76q-31 32 -76 32h-401v-195h294v-284q0 -90 -103 -141q-83 -41 -191 -41
t-191 41q-103 51 -103 141v782q0 91 103 141q83 41 191 41t191 -41zM507 -338h59q18 0 40 1q58 3 94 20q24 14 24 49v2q-2 15 -15 26.5t-40.5 17.5t-108.5 6v141q108 2 175.5 -15t109.5 -69t42 -113q-5 -85 -67.5 -143t-212.5 -68q-57 0 -133 9z" />
    <glyph glyph-name="uni0123" unicode="&#x123;" 
d="M702 1079q-82 59 -183 59h-84q-130 0 -223 -92q-92 -92 -92 -223v-448q0 -131 92 -223q93 -92 223 -92h84q101 0 183 59v-156q0 -41 -29 -71q-30 -29 -71 -29h-167q-41 0 -71 29q-29 30 -29 71h-215q0 -130 92 -222q93 -93 223 -93h167q130 0 222 93q93 92 93 222v1175
h-215v-59zM702 355q0 -41 -30 -71q-30 -29 -70 -29h-167q-41 0 -71 29q-29 29 -29 71v488q0 42 29 71q30 30 71 30h167q40 0 70 -30t30 -71v-488zM386 1442q25 156 109 239h115q-63 -132 -68 -239h79v-234h-235v234z" />
    <glyph glyph-name="Hcircumflex" unicode="&#x124;" horiz-adv-x="1302" 
d="M917 843h-532v647h-215v-1490h215v648h532v-648h215v1490h-215v-647zM792 1842l185 -290h-215l-111 189l-111 -189h-215l185 290h282z" />
    <glyph glyph-name="hcircumflex" unicode="&#x125;" horiz-adv-x="1057" 
d="M518 1139q-101 0 -183 -59v410h-215v-1489h83v-1h132v844q0 42 29 71q30 30 71 30h167q40 0 70 -30t30 -71v-844h215v824q0 131 -93 223q-92 92 -222 92h-84zM660 1814l185 -290h-215l-111 189l-111 -189h-215l185 290h282z" />
    <glyph glyph-name="Hbar" unicode="&#x126;" horiz-adv-x="1302" 
d="M917 843h-532v647h-215v-1490h215v648h532v-648h215v1490h-215v-647zM-10 1290v-175h1320v175h-1320z" />
    <glyph glyph-name="hbar" unicode="&#x127;" horiz-adv-x="1057" 
d="M518 1139q-101 0 -183 -59v410h-215v-1489h83v-1h132v844q0 42 29 71q30 30 71 30h167q40 0 70 -30t30 -71v-844h215v824q0 131 -93 223q-92 92 -222 92h-84zM-80 1384v-175h660v175h-660z" />
    <glyph glyph-name="Itilde" unicode="&#x128;" horiz-adv-x="615" 
d="M200 0h215v1490h-215v-1490zM413 1538q-42 0 -83 27q-26 15 -44 34q-21 23 -32 32q-14 14 -37 15q-29 -2 -42 -17q-21 -25 -18 -59h-121q0 114 53 168q42 43 110 43h1q62 0 103 -36q21 -22 52 -44q34 -23 59 -23q29 1 41.5 20t12.5 53h111q0 -116 -53 -170
q-42 -43 -111 -43h-2z" />
    <glyph glyph-name="itilde" unicode="&#x129;" horiz-adv-x="515" 
d="M150 0h215v1139h-215v-1139zM363 1187q-42 0 -83 27q-26 15 -44 34q-21 23 -32 32q-14 14 -37 15q-29 -2 -42 -17q-21 -25 -18 -59h-121q0 114 53 168q42 43 110 43h1q62 0 103 -36q21 -22 52 -44q34 -23 59 -23q29 1 41.5 20t12.5 53h111q0 -116 -53 -170
q-42 -43 -111 -43h-2z" />
    <glyph glyph-name="Imacron" unicode="&#x12a;" horiz-adv-x="615" 
d="M200 0h215v1490h-215v-1490zM58 1785v-175h500v175h-500z" />
    <glyph glyph-name="imacron" unicode="&#x12b;" horiz-adv-x="515" 
d="M150 0h215v1139h-215v-1139zM8 1434v-175h500v175h-500z" />
    <glyph glyph-name="Ibreve" unicode="&#x12c;" horiz-adv-x="615" 
d="M200 0h215v1490h-215v-1490zM2 1772h175q131 -149 262 0h175q-95 -210 -306 -210t-306 210z" />
    <glyph glyph-name="ibreve" unicode="&#x12d;" horiz-adv-x="515" 
d="M150 0h215v1139h-215v-1139zM-48 1421h175q131 -149 262 0h175q-95 -210 -306 -210t-306 210z" />
    <glyph glyph-name="Iogonek" unicode="&#x12e;" horiz-adv-x="615" 
d="M200 0h215v1490h-215v-1490zM339 -213q-23 -14 -56 -14q-25 3 -34 13.5t-10 29.5q0 15 9 30q33 54 133 154h-151l-97 -97q-33 -35 -35 -81q0 -109 107 -159q37 -17 78 -17h9q45 3 85 30q41 26 76 76l-70 67z" />
    <glyph glyph-name="iogonek" unicode="&#x12f;" horiz-adv-x="515" 
d="M150 0h215v1139h-215v-1139zM150 1275h215v215h-215v-215zM292 -213q-23 -14 -56 -14q-25 3 -34 13.5t-10 29.5q0 15 9 30q33 54 133 154h-151l-97 -97q-33 -35 -35 -81q0 -109 107 -159q37 -17 78 -17h9q45 3 85 30q41 26 76 76l-70 67z" />
    <glyph glyph-name="Idotaccent" unicode="&#x130;" horiz-adv-x="615" 
d="M200 0h215v1490h-215v-1490zM200 1626h215v215h-215v-215z" />
    <glyph glyph-name="IJ" unicode="&#x132;" horiz-adv-x="1599" 
d="M200 0h215v1490h-215v-1490zM1214 342q0 -103 -85 -144q-45 -23 -98 -23q-52 0 -98 23q-84 41 -84 144v128h-215v-108q0 -178 125 -285q112 -97 272 -97t273 97q125 107 125 285v1126h-215v-1146z" />
    <glyph glyph-name="ij" unicode="&#x133;" horiz-adv-x="1097" 
d="M150 0h215v1139h-215v-1139zM150 1275h215v215h-215v-215zM733 -57q0 -41 -30 -71q-29 -29 -71 -29h-107v-195h107q131 0 223 93q92 92 92 222v1175h-214v-1195zM732 1275h215v215h-215v-215z" />
    <glyph glyph-name="Jcircumflex" unicode="&#x134;" horiz-adv-x="984" 
d="M599 342q0 -103 -85 -144q-45 -23 -98 -23q-52 0 -98 23q-84 41 -84 144v128h-215v-108q0 -178 125 -285q112 -97 272 -97t273 97q125 107 125 285v1126h-215v-1146zM835 1842l185 -290h-215l-111 189l-111 -189h-215l185 290h282z" />
    <glyph glyph-name="jcircumflex" unicode="&#x135;" horiz-adv-x="630" 
d="M457 1491l185 -290h-215l-111 189l-111 -189h-215l185 290h282zM218 -57q0 -41 -30 -71q-29 -29 -71 -29h-107v-195h107q131 0 223 93q92 92 92 222v1175h-214v-1195z" />
    <glyph glyph-name="uni0136" unicode="&#x136;" horiz-adv-x="1166" 
d="M889 1490l-504 -624v623h-215v-1490h215v525l128 158l398 -682h249l-503 861l508 629h-276zM445 -338h59q18 0 40 1q58 3 94 20q24 14 24 49v2q-2 15 -15 26.5t-40.5 17.5t-108.5 6v141q108 2 175.5 -15t109.5 -69t42 -113q-5 -85 -67.5 -143t-212.5 -68q-57 0 -133 9z
" />
    <glyph glyph-name="uni0137" unicode="&#x137;" horiz-adv-x="1047" 
d="M723 1139l-388 -371v721h-215v-1490h215v472l108 103l351 -574h252l-443 726l430 413h-310zM371 -338h59q18 0 40 1q58 3 94 20q24 14 24 49v2q-2 15 -15 26.5t-40.5 17.5t-108.5 6v141q108 2 175.5 -15t109.5 -69t42 -113q-5 -85 -67.5 -143t-212.5 -68q-57 0 -133 9z
" />
    <glyph glyph-name="kgreenlandic" unicode="&#x138;" horiz-adv-x="1047" 
d="M723 1139l-388 -371v372h-215v-1141h215v472l108 103l351 -574h252l-443 726l430 413h-310z" />
    <glyph glyph-name="Lacute" unicode="&#x139;" horiz-adv-x="1088" 
d="M385 1490h-215v-1490h870v215h-655v1275zM648 1872h241l-221 -290h-205z" />
    <glyph glyph-name="lacute" unicode="&#x13a;" horiz-adv-x="535" 
d="M160 0h215v1490h-215v-1490zM295 1837h241l-221 -290h-205z" />
    <glyph glyph-name="uni013B" unicode="&#x13b;" horiz-adv-x="1088" 
d="M385 1490h-215v-1490h870v215h-655v1275zM424 -338h59q18 0 40 1q58 3 94 20q24 14 24 49v2q-2 15 -15 26.5t-40.5 17.5t-108.5 6v141q108 2 175.5 -15t109.5 -69t42 -113q-5 -85 -67.5 -143t-212.5 -68q-57 0 -133 9z" />
    <glyph glyph-name="uni013C" unicode="&#x13c;" horiz-adv-x="535" 
d="M160 0h215v1490h-215v-1490zM105 -338h59q18 0 40 1q58 3 94 20q24 14 24 49v2q-2 15 -15 26.5t-40.5 17.5t-108.5 6v141q108 2 175.5 -15t109.5 -69t42 -113q-5 -85 -67.5 -143t-212.5 -68q-57 0 -133 9z" />
    <glyph glyph-name="Lcaron" unicode="&#x13d;" horiz-adv-x="1088" 
d="M385 1490h-215v-1490h870v215h-655v1275zM1035 1257q-25 -156 -109 -239h-115q63 132 68 239h-79v234h235v-234z" />
    <glyph glyph-name="lcaron" unicode="&#x13e;" horiz-adv-x="754" 
d="M160 0h215v1490h-215v-1490zM735 1257q-25 -156 -109 -239h-115q63 132 68 239h-79v234h235v-234z" />
    <glyph glyph-name="Ldot" unicode="&#x13f;" horiz-adv-x="1088" 
d="M385 1490h-215v-1490h870v215h-655v1275zM979.742 844.895v-198.895h-199.744v198.895h199.744z" />
    <glyph glyph-name="ldot" unicode="&#x140;" horiz-adv-x="735" 
d="M160 0h215v1490h-215v-1490zM716.742 843.895v-198.895h-199.744v198.895h199.744z" />
    <glyph glyph-name="Lslash" unicode="&#x141;" horiz-adv-x="1088" 
d="M385 1490h-215v-1490h870v215h-655v1275zM-102 669v-175l777 470v175z" />
    <glyph glyph-name="lslash" unicode="&#x142;" horiz-adv-x="574" 
d="M160 0h215v1490h-215v-1490zM-102 669v-175l777 470v175z" />
    <glyph glyph-name="Nacute" unicode="&#x143;" horiz-adv-x="1273" 
d="M170 1490v-1489h215v1063q137 -333 548 -1064h170v1491h-215v-1053q-137 323 -547 1052h-171zM680 1872h241l-221 -290h-205z" />
    <glyph glyph-name="nacute" unicode="&#x144;" 
d="M518 1139q-101 0 -183 -59v59h-215v-1138h83v-1h132v844q0 41 30 71q29 30 70 30h167q41 0 71 -30q29 -29 29 -71v-844h215v824q0 131 -93 223q-92 92 -222 92h-84zM562 1521h241l-221 -290h-205z" />
    <glyph glyph-name="uni0145" unicode="&#x145;" horiz-adv-x="1273" 
d="M170 1490v-1489h215v1063q137 -333 548 -1064h170v1491h-215v-1053q-137 323 -547 1052h-171zM469 -338h59q18 0 40 1q58 3 94 20q24 14 24 49v2q-2 15 -15 26.5t-40.5 17.5t-108.5 6v141q108 2 175.5 -15t109.5 -69t42 -113q-5 -85 -67.5 -143t-212.5 -68q-57 0 -133 9z
" />
    <glyph glyph-name="uni0146" unicode="&#x146;" 
d="M518 1139q-101 0 -183 -59v59h-215v-1138h83v-1h132v844q0 41 30 71q29 30 70 30h167q41 0 71 -30q29 -29 29 -71v-844h215v824q0 131 -93 223q-92 92 -222 92h-84zM313 -338h59q18 0 40 1q58 3 94 20q24 14 24 49v2q-2 15 -15 26.5t-40.5 17.5t-108.5 6v141
q108 2 175.5 -15t109.5 -69t42 -113q-5 -85 -67.5 -143t-212.5 -68q-57 0 -133 9z" />
    <glyph glyph-name="Ncaron" unicode="&#x147;" horiz-adv-x="1273" 
d="M170 1490v-1489h215v1063q137 -333 548 -1064h170v1491h-215v-1053q-137 323 -547 1052h-171zM496 1552l-185 290h215l111 -189l111 189h215l-185 -290h-282z" />
    <glyph glyph-name="ncaron" unicode="&#x148;" 
d="M518 1139q-101 0 -183 -59v59h-215v-1138h83v-1h132v844q0 41 30 71q29 30 70 30h167q41 0 71 -30q29 -29 29 -71v-844h215v824q0 131 -93 223q-92 92 -222 92h-84zM378 1201l-185 290h215l111 -189l111 189h215l-185 -290h-282z" />
    <glyph glyph-name="napostrophe" unicode="&#x149;" horiz-adv-x="1242" 
d="M678 1139q-101 0 -183 -59v59h-215v-1138h83v-1h132v844q0 41 30 71q29 30 70 30h167q41 0 71 -30q29 -29 29 -71v-844h215v824q0 131 -93 223q-92 92 -222 92h-84zM244 1257q-25 -156 -109 -239h-115q63 132 68 239h-79v234h235v-234z" />
    <glyph glyph-name="Eng" unicode="&#x14a;" horiz-adv-x="1273" 
d="M879 -242h115q84 83 109 239v1494h-215v-1053q-137 323 -547 1052h-171v-1489h215v1063q137 -333 548 -1064q9 -110 -54 -242z" />
    <glyph glyph-name="eng" unicode="&#x14b;" 
d="M761 0q-5 -107 -68 -239h115q84 83 109 239v824q0 131 -93 223q-92 92 -222 92h-84q-101 0 -183 -59v59h-215v-1138h83v-1h132v844q0 41 30 71q29 30 70 30h167q41 0 71 -30q29 -29 29 -71v-844h59z" />
    <glyph glyph-name="Omacron" unicode="&#x14c;" horiz-adv-x="1358" 
d="M679 1510q-195 0 -334 -90q-175 -112 -175 -307v-742q0 -195 175 -307q139 -90 334 -90q194 0 334 90q175 112 175 307v742q0 195 -175 307q-140 90 -334 90zM973 351q0 -90 -103 -141q-83 -41 -191 -41t-191 41q-103 51 -103 141v782q0 91 103 141q83 41 191 41t191 -41
q103 -50 103 -141v-782zM429 1785v-175h500v175h-500z" />
    <glyph glyph-name="omacron" unicode="&#x14d;" 
d="M435 1139q-130 0 -223 -92q-92 -92 -92 -223v-509q0 -130 92 -223q93 -92 223 -92h167q130 0 222 92q93 93 93 223v509q0 131 -93 223q-92 92 -222 92h-167zM702 295q0 -41 -30 -71q-30 -29 -70 -29h-167q-41 0 -71 29q-29 29 -29 71v549q0 42 29 71q30 30 71 30h167
q40 0 70 -30t30 -71v-549zM269 1434v-175h500v175h-500z" />
    <glyph glyph-name="Obreve" unicode="&#x14e;" horiz-adv-x="1358" 
d="M679 1510q-195 0 -334 -90q-175 -112 -175 -307v-742q0 -195 175 -307q139 -90 334 -90q194 0 334 90q175 112 175 307v742q0 195 -175 307q-140 90 -334 90zM973 351q0 -90 -103 -141q-83 -41 -191 -41t-191 41q-103 51 -103 141v782q0 91 103 141q83 41 191 41t191 -41
q103 -50 103 -141v-782zM373 1772h175q131 -149 262 0h175q-95 -210 -306 -210t-306 210z" />
    <glyph glyph-name="obreve" unicode="&#x14f;" 
d="M435 1139q-130 0 -223 -92q-92 -92 -92 -223v-509q0 -130 92 -223q93 -92 223 -92h167q130 0 222 92q93 93 93 223v509q0 131 -93 223q-92 92 -222 92h-167zM702 295q0 -41 -30 -71q-30 -29 -70 -29h-167q-41 0 -71 29q-29 29 -29 71v549q0 42 29 71q30 30 71 30h167
q40 0 70 -30t30 -71v-549zM213 1421h175q131 -149 262 0h175q-95 -210 -306 -210t-306 210z" />
    <glyph glyph-name="Ohungarumlaut" unicode="&#x150;" horiz-adv-x="1358" 
d="M679 1510q-195 0 -334 -90q-175 -112 -175 -307v-742q0 -195 175 -307q139 -90 334 -90q194 0 334 90q175 112 175 307v742q0 195 -175 307q-140 90 -334 90zM973 351q0 -90 -103 -141q-83 -41 -191 -41t-191 41q-103 51 -103 141v782q0 91 103 141q83 41 191 41t191 -41
q103 -50 103 -141v-782zM438 1872h241l-221 -290h-205zM864 1872h241l-221 -290h-205z" />
    <glyph glyph-name="ohungarumlaut" unicode="&#x151;" 
d="M435 1139q-130 0 -223 -92q-92 -92 -92 -223v-509q0 -130 92 -223q93 -92 223 -92h167q130 0 222 92q93 93 93 223v509q0 131 -93 223q-92 92 -222 92h-167zM702 295q0 -41 -30 -71q-30 -29 -70 -29h-167q-41 0 -71 29q-29 29 -29 71v549q0 42 29 71q30 30 71 30h167
q40 0 70 -30t30 -71v-549zM278 1521h241l-221 -290h-205zM704 1521h241l-221 -290h-205z" />
    <glyph glyph-name="OE" unicode="&#x152;" horiz-adv-x="1881" 
d="M973 351q0 -90 -103 -141q-83 -41 -191 -41t-191 41q-103 51 -103 141v782q0 91 103 141q83 41 191 41t191 -41q103 -50 103 -141v-782zM973 0h852v195h-637v453h537v195h-537v452h637v195h-852v-47q-127 67 -294 67q-195 0 -334 -90q-175 -112 -175 -307v-742
q0 -195 175 -307q139 -90 334 -90q167 0 294 67v-41z" />
    <glyph glyph-name="oe" unicode="&#x153;" horiz-adv-x="1623" 
d="M702 295q0 -41 -30 -71q-30 -29 -70 -29h-167q-41 0 -71 29q-29 29 -29 71v549q0 42 29 71q30 30 71 30h167q40 0 70 -30t30 -71v-549zM1283 677h-367v167q0 41 30 71q29 30 70 30h167q40 0 70 -30t30 -71v-167zM1016 0h167q130 0 222 92q93 93 93 223h-215
q0 -61 -30 -91q-30 -29 -70 -29h-167q-41 0 -70 29q-28 28 -30 66q1 12 1 25v147h473q45 0 76 32q32 31 32 76v254q0 131 -93 223q-92 92 -222 92h-167q-119 0 -207 -77q-88 77 -207 77h-167q-130 0 -223 -92q-92 -92 -92 -223v-509q0 -130 92 -223q93 -92 223 -92h167
q119 0 207 77q88 -77 207 -77z" />
    <glyph glyph-name="Racute" unicode="&#x154;" horiz-adv-x="1237" 
d="M385 796v500h335q93 0 140 -85q36 -64 36 -170q0 -114 -50 -182q-47 -63 -126 -63h-335zM1232 0l-140 280q-122 245 -205 349q78 39 132 113q91 125 91 299q0 181 -99 309q-109 141 -291 141h-550v-1490h215v600h202q110 0 313 -417l89 -184h243zM744 1872h241l-221 -290
h-205z" />
    <glyph glyph-name="racute" unicode="&#x155;" horiz-adv-x="810" 
d="M385 1139h-215v-1139h215v702q0 138 45 190q46 53 166 53h190v194h-107q-186 0 -294 -94v94zM521 1521h241l-221 -290h-205z" />
    <glyph glyph-name="uni0156" unicode="&#x156;" horiz-adv-x="1237" 
d="M385 796v500h335q93 0 140 -85q36 -64 36 -170q0 -114 -50 -182q-47 -63 -126 -63h-335zM1232 0l-140 280q-122 245 -205 349q78 39 132 113q91 125 91 299q0 181 -99 309q-109 141 -291 141h-550v-1490h215v600h202q110 0 313 -417l89 -184h243zM507 -338h59q18 0 40 1
q58 3 94 20q24 14 24 49v2q-2 15 -15 26.5t-40.5 17.5t-108.5 6v141q108 2 175.5 -15t109.5 -69t42 -113q-5 -85 -67.5 -143t-212.5 -68q-57 0 -133 9z" />
    <glyph glyph-name="uni0157" unicode="&#x157;" horiz-adv-x="810" 
d="M385 1139h-215v-1139h215v702q0 138 45 190q46 53 166 53h190v194h-107q-186 0 -294 -94v94zM292 -338h59q18 0 40 1q58 3 94 20q24 14 24 49v2q-2 15 -15 26.5t-40.5 17.5t-108.5 6v141q108 2 175.5 -15t109.5 -69t42 -113q-5 -85 -67.5 -143t-212.5 -68q-57 0 -133 9z
" />
    <glyph glyph-name="Rcaron" unicode="&#x158;" horiz-adv-x="1237" 
d="M385 796v500h335q93 0 140 -85q36 -64 36 -170q0 -114 -50 -182q-47 -63 -126 -63h-335zM1232 0l-140 280q-122 245 -205 349q78 39 132 113q91 125 91 299q0 181 -99 309q-109 141 -291 141h-550v-1490h215v600h202q110 0 313 -417l89 -184h243zM560 1552l-185 290h215
l111 -189l111 189h215l-185 -290h-282z" />
    <glyph glyph-name="rcaron" unicode="&#x159;" horiz-adv-x="810" 
d="M385 1139h-215v-1139h215v702q0 138 45 190q46 53 166 53h190v194h-107q-186 0 -294 -94v94zM337 1201l-185 290h215l111 -189l111 189h215l-185 -290h-282z" />
    <glyph glyph-name="Sacute" unicode="&#x15a;" horiz-adv-x="1291" 
d="M648 890q-182 6 -231 35q-62 37 -58 169q4 174 201 206q112 18 220 -18q89 -34 130 -110l202 74q-60 143 -236 220q-167 66 -350 36q-172 -28 -275 -136t-107 -266q-7 -268 174 -366q96 -52 323 -59q191 -5 244 -38q69 -43 68 -202q-2 -153 -118 -214q-70 -37 -164 -42
q-127 -7 -228 43t-109 132l-214 -24q20 -180 209 -282q140 -75 316 -75q18 0 36 1q195 10 326 112q158 125 160 347q4 291 -184 395q-101 55 -335 62zM687 1872h241l-221 -290h-205z" />
    <glyph glyph-name="sacute" unicode="&#x15b;" horiz-adv-x="925" 
d="M413 676q-61 0 -86 50q-14 29 -14 104q0 52 27 84q25 31 73 31h97q35 0 63 -23q27 -22 35 -76l210 46q-24 108 -111 177q-87 70 -197 70h-97q-149 0 -239 -107q-76 -93 -76 -222q0 -132 80 -225q88 -103 235 -103h125q63 0 88 -62q14 -33 14 -72q0 -81 -30 -120
q-26 -33 -72 -33h-153q-41 0 -71 29q-29 29 -29 91h-215q0 -130 92 -223q93 -92 223 -92h153q152 0 242 117q75 97 75 231q0 140 -80 219q-89 109 -237 109h-125zM506 1521h241l-221 -290h-205z" />
    <glyph glyph-name="Scircumflex" unicode="&#x15c;" horiz-adv-x="1291" 
d="M648 890q-182 6 -231 35q-62 37 -58 169q4 174 201 206q112 18 220 -18q89 -34 130 -110l202 74q-60 143 -236 220q-167 66 -350 36q-172 -28 -275 -136t-107 -266q-7 -268 174 -366q96 -52 323 -59q191 -5 244 -38q69 -43 68 -202q-2 -153 -118 -214q-70 -37 -164 -42
q-127 -7 -228 43t-109 132l-214 -24q20 -180 209 -282q140 -75 316 -75q18 0 36 1q195 10 326 112q158 125 160 347q4 291 -184 395q-101 55 -335 62zM785 1842l185 -290h-215l-111 189l-111 -189h-215l185 290h282z" />
    <glyph glyph-name="scircumflex" unicode="&#x15d;" horiz-adv-x="925" 
d="M413 676q-61 0 -86 50q-14 29 -14 104q0 52 27 84q25 31 73 31h97q35 0 63 -23q27 -22 35 -76l210 46q-24 108 -111 177q-87 70 -197 70h-97q-149 0 -239 -107q-76 -93 -76 -222q0 -132 80 -225q88 -103 235 -103h125q63 0 88 -62q14 -33 14 -72q0 -81 -30 -120
q-26 -33 -72 -33h-153q-41 0 -71 29q-29 29 -29 91h-215q0 -130 92 -223q93 -92 223 -92h153q152 0 242 117q75 97 75 231q0 140 -80 219q-89 109 -237 109h-125zM604 1491l185 -290h-215l-111 189l-111 -189h-215l185 290h282z" />
    <glyph glyph-name="Scedilla" unicode="&#x15e;" horiz-adv-x="1291" 
d="M648 890q-182 6 -231 35q-62 37 -58 169q4 174 201 206q112 18 220 -18q89 -34 130 -110l202 74q-60 143 -236 220q-167 66 -350 36q-172 -28 -275 -136t-107 -266q-7 -268 174 -366q96 -52 323 -59q191 -5 244 -38q69 -43 68 -202q-2 -153 -118 -214q-70 -37 -164 -42
q-127 -7 -228 43t-109 132l-214 -24q20 -180 209 -282q140 -75 316 -75q18 0 36 1q195 10 326 112q158 125 160 347q4 291 -184 395q-101 55 -335 62zM418 -492q110 -9 168 -9q152 11 216.5 69t67.5 142q0 61 -42 113t-108 66l31 112h-160l-61 -224q95 -6 119.5 -11.5
t41.5 -19.5t19 -30v-2q0 -30 -32 -49q-37 -23 -86 -26l-49 -1h-95z" />
    <glyph glyph-name="scedilla" unicode="&#x15f;" horiz-adv-x="925" 
d="M413 676q-61 0 -86 50q-14 29 -14 104q0 52 27 84q25 31 73 31h97q35 0 63 -23q27 -22 35 -76l210 46q-24 108 -111 177q-87 70 -197 70h-97q-149 0 -239 -107q-76 -93 -76 -222q0 -132 80 -225q88 -103 235 -103h125q63 0 88 -62q14 -33 14 -72q0 -81 -30 -120
q-26 -33 -72 -33h-153q-41 0 -71 29q-29 29 -29 91h-215q0 -130 92 -223q93 -92 223 -92h153q152 0 242 117q75 97 75 231q0 140 -80 219q-89 109 -237 109h-125zM237 -492q110 -9 168 -9q152 11 216.5 69t67.5 142q0 61 -42 113t-108 66l31 112h-160l-61 -224
q95 -6 119.5 -11.5t41.5 -19.5t19 -30v-2q0 -30 -32 -49q-37 -23 -86 -26l-49 -1h-95z" />
    <glyph glyph-name="Scaron" unicode="&#x160;" horiz-adv-x="1291" 
d="M648 890q-182 6 -231 35q-62 37 -58 169q4 174 201 206q112 18 220 -18q89 -34 130 -110l202 74q-60 143 -236 220q-167 66 -350 36q-172 -28 -275 -136t-107 -266q-7 -268 174 -366q96 -52 323 -59q191 -5 244 -38q69 -43 68 -202q-2 -153 -118 -214q-70 -37 -164 -42
q-127 -7 -228 43t-109 132l-214 -24q20 -180 209 -282q140 -75 316 -75q18 0 36 1q195 10 326 112q158 125 160 347q4 291 -184 395q-101 55 -335 62zM503 1552l-185 290h215l111 -189l111 189h215l-185 -290h-282z" />
    <glyph glyph-name="scaron" unicode="&#x161;" horiz-adv-x="925" 
d="M413 676q-61 0 -86 50q-14 29 -14 104q0 52 27 84q25 31 73 31h97q35 0 63 -23q27 -22 35 -76l210 46q-24 108 -111 177q-87 70 -197 70h-97q-149 0 -239 -107q-76 -93 -76 -222q0 -132 80 -225q88 -103 235 -103h125q63 0 88 -62q14 -33 14 -72q0 -81 -30 -120
q-26 -33 -72 -33h-153q-41 0 -71 29q-29 29 -29 91h-215q0 -130 92 -223q93 -92 223 -92h153q152 0 242 117q75 97 75 231q0 140 -80 219q-89 109 -237 109h-125zM322 1201l-185 290h215l111 -189l111 189h215l-185 -290h-282z" />
    <glyph glyph-name="uni0162" unicode="&#x162;" horiz-adv-x="1065" 
d="M70 1490v-195h355v-1295h215v1295h355v195h-925zM285 -492q110 -9 168 -9q152 11 216.5 69t67.5 142q0 61 -42 113t-108 66l31 112h-160l-61 -224q95 -6 119.5 -11.5t41.5 -19.5t19 -30v-2q0 -30 -32 -49q-37 -23 -86 -26l-49 -1h-95z" />
    <glyph glyph-name="uni0163" unicode="&#x163;" horiz-adv-x="690" 
d="M425 1490h-215v-361h-160v-194h160v-699q0 -93 22 -139q47 -97 174 -97h217v195h-198v740h215v194h-215v361zM235 -492q110 -9 168 -9q152 11 216.5 69t67.5 142q0 61 -42 113t-108 66l31 112h-160l-61 -224q95 -6 119.5 -11.5t41.5 -19.5t19 -30v-2q0 -30 -32 -49
q-37 -23 -86 -26l-49 -1h-95z" />
    <glyph glyph-name="Tcaron" unicode="&#x164;" horiz-adv-x="1065" 
d="M70 1490v-195h355v-1295h215v1295h355v195h-925zM392 1552l-185 290h215l111 -189l111 189h215l-185 -290h-282z" />
    <glyph glyph-name="tcaron" unicode="&#x165;" horiz-adv-x="940" 
d="M425 1490h-215v-361h-160v-194h160v-699q0 -93 22 -139q47 -97 174 -97h217v195h-198v740h215v194h-215v361zM925 1257q-25 -156 -109 -239h-115q63 132 68 239h-79v234h235v-234z" />
    <glyph glyph-name="Tbar" unicode="&#x166;" horiz-adv-x="1047" 
d="M70 1490v-195h355v-1295h215v1295h355v195h-925zM153 833v-175h760v175h-760z" />
    <glyph glyph-name="tbar" unicode="&#x167;" horiz-adv-x="683" 
d="M425 1490h-215v-361h-160v-194h160v-699q0 -93 22 -139q47 -97 174 -97h217v195h-198v740h215v194h-215v361zM65 684v-175h560v175h-560z" />
    <glyph glyph-name="Utilde" unicode="&#x168;" horiz-adv-x="1299" 
d="M914 352q0 -95 -98 -145q-73 -37 -166 -37q-94 0 -167 37q-98 50 -98 145v1136h-215v-1116q0 -185 150 -296q137 -101 330 -101q192 0 329 101q150 111 150 296v1116h-215v-1136zM755 1538q-42 0 -83 27q-26 15 -44 34q-21 23 -32 32q-14 14 -37 15q-29 -2 -42 -17
q-21 -25 -18 -59h-121q0 114 53 168q42 43 110 43h1q62 0 103 -36q21 -22 52 -44q34 -23 59 -23q29 1 41.5 20t12.5 53h111q0 -116 -53 -170q-42 -43 -111 -43h-2z" />
    <glyph glyph-name="utilde" unicode="&#x169;" 
d="M702 295q0 -42 -29 -71q-30 -29 -71 -29h-167q-41 0 -70 29q-30 30 -30 71v844h-215v-824q0 -130 92 -223q93 -92 223 -92h167q130 0 222 92q93 93 93 223v824h-215v-844zM624 1187q-42 0 -83 27q-26 15 -44 34q-21 23 -32 32q-14 14 -37 15q-29 -2 -42 -17
q-21 -25 -18 -59h-121q0 114 53 168q42 43 110 43h1q62 0 103 -36q21 -22 52 -44q34 -23 59 -23q29 1 41.5 20t12.5 53h111q0 -116 -53 -170q-42 -43 -111 -43h-2z" />
    <glyph glyph-name="Umacron" unicode="&#x16a;" horiz-adv-x="1299" 
d="M914 352q0 -95 -98 -145q-73 -37 -166 -37q-94 0 -167 37q-98 50 -98 145v1136h-215v-1116q0 -185 150 -296q137 -101 330 -101q192 0 329 101q150 111 150 296v1116h-215v-1136zM400 1785v-175h500v175h-500z" />
    <glyph glyph-name="umacron" unicode="&#x16b;" 
d="M702 295q0 -42 -29 -71q-30 -29 -71 -29h-167q-41 0 -70 29q-30 30 -30 71v844h-215v-824q0 -130 92 -223q93 -92 223 -92h167q130 0 222 92q93 93 93 223v824h-215v-844zM269 1434v-175h500v175h-500z" />
    <glyph glyph-name="Ubreve" unicode="&#x16c;" horiz-adv-x="1299" 
d="M914 352q0 -95 -98 -145q-73 -37 -166 -37q-94 0 -167 37q-98 50 -98 145v1136h-215v-1116q0 -185 150 -296q137 -101 330 -101q192 0 329 101q150 111 150 296v1116h-215v-1136zM344 1772h175q131 -149 262 0h175q-95 -210 -306 -210t-306 210z" />
    <glyph glyph-name="ubreve" unicode="&#x16d;" 
d="M702 295q0 -42 -29 -71q-30 -29 -71 -29h-167q-41 0 -70 29q-30 30 -30 71v844h-215v-824q0 -130 92 -223q93 -92 223 -92h167q130 0 222 92q93 93 93 223v824h-215v-844zM213 1421h175q131 -149 262 0h175q-95 -210 -306 -210t-306 210z" />
    <glyph glyph-name="Uring" unicode="&#x16e;" horiz-adv-x="1299" 
d="M914 352q0 -95 -98 -145q-73 -37 -166 -37q-94 0 -167 37q-98 50 -98 145v1136h-215v-1116q0 -185 150 -296q137 -101 330 -101q192 0 329 101q150 111 150 296v1116h-215v-1136zM651 1861q-76 0 -130 -54t-54 -128q0 -76 54 -130t130 -54q74 0 128 54t54 130
q0 74 -54 128t-128 54zM697.5 1725.5q19.5 -19.5 19.5 -46.5q0 -29 -19.5 -48.5t-46.5 -19.5q-29 0 -48.5 19.5t-19.5 48.5q0 27 19.5 46.5t48.5 19.5q27 0 46.5 -19.5z" />
    <glyph glyph-name="uring" unicode="&#x16f;" 
d="M702 295q0 -42 -29 -71q-30 -29 -71 -29h-167q-41 0 -70 29q-30 30 -30 71v844h-215v-824q0 -130 92 -223q93 -92 223 -92h167q130 0 222 92q93 93 93 223v824h-215v-844zM520 1510q-76 0 -130 -54t-54 -128q0 -76 54 -130t130 -54q74 0 128 54t54 130q0 74 -54 128
t-128 54zM566.5 1374.5q19.5 -19.5 19.5 -46.5q0 -29 -19.5 -48.5t-46.5 -19.5q-29 0 -48.5 19.5t-19.5 48.5q0 27 19.5 46.5t48.5 19.5q27 0 46.5 -19.5z" />
    <glyph glyph-name="Uhungarumlaut" unicode="&#x170;" horiz-adv-x="1299" 
d="M914 352q0 -95 -98 -145q-73 -37 -166 -37q-94 0 -167 37q-98 50 -98 145v1136h-215v-1116q0 -185 150 -296q137 -101 330 -101q192 0 329 101q150 111 150 296v1116h-215v-1136zM409 1872h241l-221 -290h-205zM835 1872h241l-221 -290h-205z" />
    <glyph glyph-name="uhungarumlaut" unicode="&#x171;" 
d="M702 295q0 -42 -29 -71q-30 -29 -71 -29h-167q-41 0 -70 29q-30 30 -30 71v844h-215v-824q0 -130 92 -223q93 -92 223 -92h167q130 0 222 92q93 93 93 223v824h-215v-844zM278 1521h241l-221 -290h-205zM704 1521h241l-221 -290h-205z" />
    <glyph glyph-name="Uogonek" unicode="&#x172;" horiz-adv-x="1299" 
d="M914 352q0 -95 -98 -145q-73 -37 -166 -37q-94 0 -167 37q-98 50 -98 145v1136h-215v-1116q0 -185 150 -296q137 -101 330 -101q192 0 329 101q150 111 150 296v1116h-215v-1136zM820 -201q-23 -14 -56 -14q-25 3 -34 13.5t-10 29.5q0 15 9 30q33 54 133 154h-151
l-97 -97q-33 -35 -35 -81q0 -109 107 -159q37 -17 78 -17h9q45 3 85 30q41 26 76 76l-70 67z" />
    <glyph glyph-name="uogonek" unicode="&#x173;" 
d="M702 295q0 -42 -29 -71q-30 -29 -71 -29h-167q-41 0 -70 29q-30 30 -30 71v844h-215v-824q0 -130 92 -223q93 -92 223 -92h167q130 0 222 92q93 93 93 223v824h-215v-844zM797 -105q-23 -14 -56 -14q-25 3 -34 13.5t-10 29.5q0 15 9 30q33 54 133 154h-151l-97 -97
q-33 -35 -35 -81q0 -109 107 -159q37 -17 78 -17h9q45 3 85 30q41 26 76 76l-70 67z" />
    <glyph glyph-name="Wcircumflex" unicode="&#x174;" horiz-adv-x="1760" 
d="M1320 0l435 1490h-224q-209 -717 -279 -1006q-70 289 -279 1006h-187q-209 -717 -279 -1006q-69 289 -278 1006h-224l434 -1490h136q228 782 304 1102q77 -320 305 -1102h136zM1021 1842l185 -290h-215l-111 189l-111 -189h-215l185 290h282z" />
    <glyph glyph-name="wcircumflex" unicode="&#x175;" horiz-adv-x="1452" 
d="M1219 1139q-158 -559 -211 -806q-45 190 -179 807h-204q-135 -617 -179 -807q-53 247 -212 806h-224l324 -1139h204l165 510l24 164l24 -164l165 -510h205l321 1139h-223zM867 1491l185 -290h-215l-111 189l-111 -189h-215l185 290h282z" />
    <glyph glyph-name="Ycircumflex" unicode="&#x176;" horiz-adv-x="1373" 
d="M990 1490q-228 -458 -304 -671q-77 213 -306 671h-240l439 -877v-613h215v613l436 877h-240zM826 1842l185 -290h-215l-111 189l-111 -189h-215l185 290h282z" />
    <glyph glyph-name="ycircumflex" unicode="&#x177;" horiz-adv-x="900" 
d="M665 1139q-147 -466 -196 -682q-49 216 -196 682h-224l308 -981l-54 -202q-13 -39 -50 -59q-31 -15 -76 -7l-107 24l-60 -166l102 -33q47 -14 95 -14q102 0 185 60q84 61 116 161l97 308l-1 1l286 908h-225zM591 1491l185 -290h-215l-111 189l-111 -189h-215l185 290h282
z" />
    <glyph glyph-name="Ydieresis" unicode="&#x178;" horiz-adv-x="1373" 
d="M990 1490q-228 -458 -304 -671q-77 213 -306 671h-240l439 -877v-613h215v613l436 877h-240zM383 1626h215v215h-215v-215zM773 1626h215v215h-215v-215z" />
    <glyph glyph-name="Zacute" unicode="&#x179;" horiz-adv-x="1105" 
d="M85 0h924v215h-665l658 1128v147h-892v-215h604l-629 -1078v-197zM590 1872h241l-221 -290h-205z" />
    <glyph glyph-name="zacute" unicode="&#x17a;" horiz-adv-x="937" 
d="M850 1139h-780v-194h515l-498 -780v-165h780v195h-515l498 780v164zM512 1521h241l-221 -290h-205z" />
    <glyph glyph-name="Zdotaccent" unicode="&#x17b;" horiz-adv-x="1105" 
d="M85 0h924v215h-665l658 1128v147h-892v-215h604l-629 -1078v-197zM440 1626h215v215h-215v-215z" />
    <glyph glyph-name="zdotaccent" unicode="&#x17c;" horiz-adv-x="937" 
d="M850 1139h-780v-194h515l-498 -780v-165h780v195h-515l498 780v164zM361 1275h215v215h-215v-215z" />
    <glyph glyph-name="Zcaron" unicode="&#x17d;" horiz-adv-x="1105" 
d="M85 0h924v215h-665l658 1128v147h-892v-215h604l-629 -1078v-197zM406 1552l-185 290h215l111 -189l111 189h215l-185 -290h-282z" />
    <glyph glyph-name="zcaron" unicode="&#x17e;" horiz-adv-x="937" 
d="M850 1139h-780v-194h515l-498 -780v-165h780v195h-515l498 780v164zM328 1201l-185 290h215l111 -189l111 189h215l-185 -290h-282z" />
    <glyph glyph-name="longs" unicode="&#x17f;" horiz-adv-x="742" 
d="M231 0h215v1195q0 42 29 71t71 29h191v195h-191q-130 0 -223 -92q-92 -93 -92 -223v-1175z" />
    <glyph glyph-name="_1" horiz-adv-x="433" 
d="M43 -338h59q18 0 40 1q58 3 94 20q24 14 24 49v2q-2 15 -15 26.5t-40.5 17.5t-108.5 6v141q108 2 175.5 -15t109.5 -69t42 -113q-5 -85 -67.5 -143t-212.5 -68q-57 0 -133 9z" />
    <glyph glyph-name="Atilde" unicode="&#xc3;" horiz-adv-x="1228" 
d="M439 613q131 384 175 561q43 -177 174 -561h-349zM1227 0l-511 1491h-204l-511 -1491h227l138 398h496l138 -398h227zM720 1538q-42 0 -83 27q-26 15 -44 34q-21 23 -32 32q-14 14 -37 15q-29 -2 -42 -17q-21 -25 -18 -59h-121q0 114 53 168q42 43 110 43h1q62 0 103 -36
q21 -22 52 -44q34 -23 59 -23q29 1 41.5 20t12.5 53h111q0 -116 -53 -170q-42 -43 -111 -43h-2z" />
    </font>
</defs>
</svg>
